Всегда рабочее зеркало без VPN и Proxy просто перед .vidak.icu напиши любое слово или цифру, Пример http://jn2o.vidak.icu

MVO

MVO

1 сезон

1

1 сезон

iTunes

1 сезон

13

1 сезон

Deluxe

pack

Рекомендуем

Repack

30

ВАЖНО

RePack

MK11

RePack

jed

RePack

fifa19

RePack

RDR2

RePack

NEED FOR SPEED™ PAYBACK

Кинопоиск HD

6 сезон

 Острые козырьки 6 сезон

Все сериалы

все сериалы на PB.wtf

RePack

FAR CRY 5
  
Magnet ссылка

Последняя дуэль / The Last Duel (Ридли Скотт) [2021, История, драма, UHD BDRemux 2160p, (Dolby Vision Profile 8)] DUB [Невафильм] pb.wtf

Последняя дуэль через торрент pb.wtf

Раздают: 1 [ 0 KB/s ]
Размер: 52.46 GB | Добавлен: 7 мес. назад | Торрент скачан:155 раз
Смотреть онлайн Последняя дуэль | Скачать    Ребята, помогите собрать деньги на оплату серверов!!!

07-01-2022 02:44 Последняя дуэль Скачать торрент  

Последняя дуэль
The Last Duel

Год выпуска: 2021
Страна: США, Великобритания
Выпущено: 20th Century Studios, Pearl Street Films, Scott Free Productions, TSG Entertainment
Жанр: История, драма
Продолжительность: 02:32:43
Перевод: Дублированный | Невафильм
Субтитры: Русские (Forced, full), английские

Режиссер: Ридли Скотт

rating

В ролях: Мэтт Дэймон, Адам Драйвер, Джоди Комер, Харриет Уолтер, Бен Аффлек, Алекс Лоутер, Мартон Чокаш, Уильям Хьюстон, Оливер Коттон, Орелиен Лорнье

Описание: Сюжет фильма Ридли Скотта основан на реальной истории последней законной дуэли, которая состоялась во Франции в XIV веке. Вернувшись с войны, нормандский рыцарь Жан де Карруж узнает о том, что его друг Жак Ле Гри изнасиловал его супругу Маргариту. Желая защитить фамильную честь и отомстить насильнику, Карруж обращается напрямую к французскому королю Карлу VI, который решает, что конфликт будет исчерпан в честном поединке. Если ее муж проиграет, Маргарита будет сожжена на костре за ложные обвинения.

Качество: UHD BDRemux 2160p (Hybrid) | Dolby Vision Profile 8
Формат: MKV

Видео: 3840x2160 at 23.976 fps, MPEG-H HEVC HDR Video, ~ 43600 kbps avg
Аудио #01: 48 kHz, AC3, 5.1, 448 Kbps | Дублированный | Невафильм | RUS |
Аудио #02: 48 kHz, TrueHD, 7.1, 4446 Kbps | Оригинал | ENG |
Аудио #03: 48 kHz, AC3, 5.1, 640 Kbps | Оригинал | ENG |
скриншот  скриншот  скриншот  скриншот  скриншот  

General
Unique ID : 52313641073771779142135547024738597329 (0x275B3DA40BB9C4C9EE0EC71E993FB9D1)
Complete name : C:VideoThe.Last.Duel.2021.BDREMUX.2160p.HDR.DVP8.seleZen.mkv
Format : Matroska
Format version : Version 4
File size : 52.5 GiB
Duration : 2 h 32 min
Overall bit rate mode : Variable
Overall bit rate : 49.1 Mb/s
Movie name : The Last Duel 2021 from seleZen
Encoded date : UTC 2022-01-06 22:21:44
Writing application : mkvmerge v59.0.0 ('Shining Star') 64-bit
Writing library : libebml v1.4.2 + libmatroska v1.6.4

Video
ID : 1
Format : HEVC
Format/Info : High Efficiency Video Coding
Format profile : Main [email protected]@High
HDR format : Dolby Vision, Version 1.0, dvhe.08.06, BL+RPU, HDR10 compatible / SMPTE ST 2086, HDR10 compatible
Codec ID : V_MPEGH/ISO/HEVC
Duration : 2 h 32 min
Bit rate : 43.6 Mb/s
Width : 3 840 pixels
Height : 2 160 pixels
Display aspect ratio : 16:9
Frame rate mode : Constant
Frame rate : 23.976 (24000/1001) FPS
Color space : YUV
Chroma subsampling : 4:2:0 (Type 2)
Bit depth : 10 bits
Bits/(Pixel*Frame) : 0.219
Stream size : 46.5 GiB (89%)
Language : English
Default : Yes
Forced : No
Color range : Limited
Color primaries : BT.2020
Transfer characteristics : PQ
Matrix coefficients : BT.2020 non-constant
Mastering display color pri : Display P3
Mastering display luminance : min: 0.0050 cd/m2, max: 1000 cd/m2

Audio #1
ID : 2
Format : AC-3
Format/Info : Audio Coding 3
Commercial name : Dolby Digital
Codec ID : A_AC3
Duration : 2 h 32 min
Bit rate mode : Constant
Bit rate : 448 kb/s
Channel(s) : 6 channels
Channel layout : L R C LFE Ls Rs
Sampling rate : 48.0 kHz
Frame rate : 31.250 FPS (1536 SPF)
Compression mode : Lossy
Stream size : 490 MiB (1%)
Title : Dub [Nevafilm]
Language : Russian
Service kind : Complete Main
Default : Yes
Forced : Yes

Audio #2
ID : 3
ID in the original source m : 4352 (0x1100)
Format : MLP FBA 16-ch
Format/Info : Meridian Lossless Packing FBA with 16-channel presentation
Commercial name : Dolby TrueHD with Dolby Atmos
Codec ID : A_TRUEHD
Duration : 2 h 32 min
Bit rate mode : Variable
Bit rate : 4 446 kb/s
Maximum bit rate : 8 448 kb/s
Channel(s) : 8 channels
Channel layout : L R C LFE Ls Rs Lb Rb
Sampling rate : 48.0 kHz
Frame rate : 1 200.000 FPS (40 SPF)
Compression mode : Lossless
Stream size : 4.74 GiB (9%)
Title : Original
Language : English
Default : No
Forced : No
Original source medium : Blu-ray
Number of dynamic objects : 13
Bed channel count : 1 channel
Bed channel configuration : LFE

Audio #3
ID : 4
ID in the original source m : 4352 (0x1100)
Format : AC-3
Format/Info : Audio Coding 3
Commercial name : Dolby Digital
Codec ID : A_AC3
Duration : 2 h 32 min
Bit rate mode : Constant
Bit rate : 640 kb/s
Channel(s) : 6 channels
Channel layout : L R C LFE Ls Rs
Sampling rate : 48.0 kHz
Frame rate : 31.250 FPS (1536 SPF)
Compression mode : Lossy
Stream size : 699 MiB (1%)
Language : English
Service kind : Complete Main
Default : No
Forced : No
Original source medium : Blu-ray

Text #1
ID : 5
Format : UTF-8
Codec ID : S_TEXT/UTF8
Codec ID/Info : UTF-8 Plain Text
Duration : 2 h 22 min
Bit rate : 1 b/s
Count of elements : 35
Stream size : 1.62 KiB (0%)
Title : Forced
Language : Russian
Default : No
Forced : No

Text #2
ID : 6
Format : UTF-8
Codec ID : S_TEXT/UTF8
Codec ID/Info : UTF-8 Plain Text
Duration : 2 h 22 min
Bit rate : 79 b/s
Count of elements : 1652
Stream size : 83.1 KiB (0%)
Title : Full
Language : Russian
Default : No
Forced : No

Text #3
ID : 7
Format : UTF-8
Codec ID : S_TEXT/UTF8
Codec ID/Info : UTF-8 Plain Text
Duration : 23 s 273 ms
Bit rate : 49 b/s
Count of elements : 6
Stream size : 143 Bytes (0%)
Title : Forced
Language : English
Default : No
Forced : No

Text #4
ID : 8
Format : UTF-8
Codec ID : S_TEXT/UTF8
Codec ID/Info : UTF-8 Plain Text
Duration : 2 h 22 min
Bit rate : 47 b/s
Count of elements : 1714
Stream size : 49.6 KiB (0%)
Title : Full
Language : English
Default : No
Forced : No

Text #5
ID : 9
Format : UTF-8
Codec ID : S_TEXT/UTF8
Codec ID/Info : UTF-8 Plain Text
Duration : 2 h 28 min
Bit rate : 56 b/s
Count of elements : 2168
Stream size : 61.1 KiB (0%)
Title : SDH
Language : English
Default : No
Forced : No

Menu
00:00:00.000 : Chapter 01
00:05:02.051 : Chapter 02
00:09:42.456 : Chapter 03
00:17:43.645 : Chapter 04
00:25:59.933 : Chapter 05
00:33:25.294 : Chapter 06
00:38:51.370 : Chapter 07
00:42:34.593 : Chapter 08
00:54:23.510 : Chapter 09
01:05:52.490 : Chapter 10
01:17:07.456 : Chapter 11
01:25:24.702 : Chapter 12
01:32:50.273 : Chapter 13
01:40:17.177 : Chapter 14
01:52:06.720 : Chapter 15
02:05:28.521 : Chapter 16
02:22:25.537 : Chapter 17

pb.wtf



Скачать Последняя дуэль через торрент https://d.radikal.ru/d41/2201/2a/de7c49820484t.jpg Скачать, смотреть онлайн Последняя дуэль бесплантно в хорошем качестве Описание: Сюжет фильма Ридли Скотта основан на реальной истории последней законной дуэли, которая состоялась во Франции в XIV веке. ... 9.9 10 7
Info! Золотая раздача, скачанное не засчитывается.
Торрент: Зарегистрирован [2022-01-07 02:44] · скачан: 155 раз
Статус: √ проверено
Размер: 52.46 GB
Как cкачать? Как скачать Последняя дуэль через торрент | UTorrent

% Раздел Тема Автор DL S | L
Фильмы 2021 [DVDrip, WEB-DLRip, HDrip] (DUB, MVO) [ 2.82 GB ] Последняя дуэль / The Last Duel [2021 История HDRip-AVC] DUB [Невафильм] от ExKinoRay Lithuania Скачать
2 | 0
Фильмы 2021 [DVDrip, WEB-DLRip, HDrip] (DUB, MVO) [ 3.39 GB ] Последняя дуэль / The Last Duel [2021 История BDRip-AVC] DUB [Невафильм] +2xMVO [Jaskier HDRezka Studio] bober100 Скачать
4 | 0
Фильмы 2021 [DVDrip, WEB-DLRip, HDrip] (DUB, MVO) [ 2.18 GB ] Последняя дуэль / The Last Duel [2021 История BDRip] DUB [Невафильм] bober100 Скачать
1 | 0
Фильмы 2021 [DVDrip, WEB-DLRip, HDrip] (DUB, MVO) [ 1.46 GB ] Последняя дуэль / The Last Duel [2021 История BDRip] DUB [Невафильм] bober100 Скачать
3 | 0
Фильмы (Blu-ray, BD-Remux, HDDVD) [ 35.28 GB ] Последняя дуэль / The Last Duel [2021 История BD Remux 1080p] DUB [Невафильм] bober100 Скачать
2 | 0
Фильмы с украинским озвучиванием [ 2.34 GB ] Последняя дуэль / Остання дуель / The Last Duel [2021 WEBRip 1080p] [Ukr DUB] killermax2013 Скачать
1 | 0

28-11-2019 20:33  

Отключить вcю реклaмy на сайте

    Дорогой пользователь! Огромная просьба, поблагодарите релизера, оцените раздачу и оставьте свои комментарий, если Вы скачали Последняя дуэль через торрент бесплатно!
    Комментировать посты могут только пользователи прошедшие не сложную регистрацию
    Показать сообщения:    

    Последняя дуэль через торрент
    Скачать бесплатно Последняя дуэль
    Последняя дуэль скачать торрент
    Последняя дуэль смотреть онлайн
    Cкачать фильм Последняя дуэль бесплатно
    Последняя дуэль скачать торрент в хорошем качестве
    Последняя дуэль смотреть онлайн бесплатно в хорошем качестве


    Вы не можете начинать темы
    Вы не можете отвечать на сообщения
    Вы не можете редактировать свои сообщения
    Вы не можете удалять свои сообщения
    Вы не можете голосовать в опросах
    Вы не можете прикреплять файлы к сообщениям
    Вы можете скачивать файлы