Лицензия

MVO

1

1 сезон

Лицензия

Лицензия

13

MVO

1 сезон

Deluxe Edition

pack

Рекомендуем

30

Repack

ВАЖНО

ВАЖНО

Ghostwire

RePack

jed

RePack

fifa19

RePack

RDR2

RePack

NEED FOR SPEED™ PAYBACK

RePack

Кинопоиск HD

 Острые козырьки 6 сезон

6 сезон

FAR CRY 6

RePack

Лицензия

MVO

1

1 сезон

1 сезон

Лицензия

  

Последняя дуэль / The Last Duel (Ридли Скотт) [2021, История, драма, BD Remux 1080p] DUB [Невафильм]

Последняя дуэль через торрент pb.wtf

Размер: 35.28 GB | Добавлен: 8 мес. назад | Торрент скачан:80 раз
Смотреть онлайн Последняя дуэль | Скачать   

07-01-2022 02:54 Последняя дуэль Скачать торрент  

Последняя дуэль
The Last Duel

Год выпуска: 2021
Страна: США, Великобритания
Выпущено: 20th Century Studios, Pearl Street Films, Scott Free Productions, TSG Entertainment
Жанр: История, драма
Продолжительность: 02:32:43
Перевод: Дублированный | Невафильм
Субтитры: Русские (Forced, full), английские

Режиссер: Ридли Скотт

rating

В ролях: Мэтт Дэймон, Адам Драйвер, Джоди Комер, Харриет Уолтер, Бен Аффлек, Алекс Лоутер, Мартон Чокаш, Уильям Хьюстон, Оливер Коттон, Орелиен Лорнье

Описание: Сюжет фильма Ридли Скотта основан на реальной истории последней законной дуэли, которая состоялась во Франции в XIV веке. Вернувшись с войны, нормандский рыцарь Жан де Карруж узнает о том, что его друг Жак Ле Гри изнасиловал его супругу Маргариту. Желая защитить фамильную честь и отомстить насильнику, Карруж обращается напрямую к французскому королю Карлу VI, который решает, что конфликт будет исчерпан в честном поединке. Если ее муж проиграет, Маргарита будет сожжена на костре за ложные обвинения.

Качество: BD Remux 1080p
Формат: MKV

Видео: MPEG-4 AVC, 1920x1080, 27.9 Mbit/s, 23.976 fps
Аудио #01: 48 kHz, AC3, 5.1, 448 Kbps | Дублированный | Невафильм | RUS |
Аудио #02: 48 kHz, DTS-HD MA, 7.1, 4727 Kbps | Оригинал | ENG |
скриншот  скриншот  скриншот  скриншот  скриншот  

General
Unique ID : 310078539963673304931963115541669657176 (0xE946F45B9B0BC1916DBCDF3F528CBA58)
Complete name : C:VideoThe.Last.Duel.2021.BDREMUX.1080p.seleZen.mkv
Format : Matroska
Format version : Version 4
File size : 35.3 GiB
Duration : 2 h 32 min
Overall bit rate mode : Variable
Overall bit rate : 33.0 Mb/s
Movie name : The Last Duel 2021 from seleZen
Encoded date : UTC 2022-01-06 21:53:40
Writing application : mkvmerge v59.0.0 ('Shining Star') 64-bit
Writing library : libebml v1.4.2 + libmatroska v1.6.4

Video
ID : 1
ID in the original source m : 4113 (0x1011)
Format : AVC
Format/Info : Advanced Video Codec
Format profile : [email protected]
Format settings : CABAC / 4 Ref Frames
Format settings, CABAC : Yes
Format settings, Reference : 4 frames
Codec ID : V_MPEG4/ISO/AVC
Duration : 2 h 32 min
Bit rate mode : Variable
Bit rate : 27.9 Mb/s
Maximum bit rate : 36.1 Mb/s
Width : 1 920 pixels
Height : 1 080 pixels
Display aspect ratio : 16:9
Frame rate mode : Constant
Frame rate : 23.976 (24000/1001) FPS
Color space : YUV
Chroma subsampling : 4:2:0
Bit depth : 8 bits
Scan type : Progressive
Bits/(Pixel*Frame) : 0.561
Stream size : 29.8 GiB (84%)
Language : English
Default : Yes
Forced : No
Original source medium : Blu-ray

Audio #1
ID : 2
Format : AC-3
Format/Info : Audio Coding 3
Commercial name : Dolby Digital
Codec ID : A_AC3
Duration : 2 h 32 min
Bit rate mode : Constant
Bit rate : 448 kb/s
Channel(s) : 6 channels
Channel layout : L R C LFE Ls Rs
Sampling rate : 48.0 kHz
Frame rate : 31.250 FPS (1536 SPF)
Compression mode : Lossy
Stream size : 490 MiB (1%)
Title : Dub [Nevafilm]
Language : Russian
Service kind : Complete Main
Default : Yes
Forced : Yes

Audio #2
ID : 3
ID in the original source m : 4352 (0x1100)
Format : DTS XLL
Format/Info : Digital Theater Systems
Commercial name : DTS-HD Master Audio
Codec ID : A_DTS
Duration : 2 h 32 min
Bit rate mode : Variable
Bit rate : 4 727 kb/s
Channel(s) : 8 channels
Channel layout : C L R LFE Lb Rb Lss Rss
Sampling rate : 48.0 kHz
Frame rate : 93.750 FPS (512 SPF)
Bit depth : 24 bits
Compression mode : Lossless
Stream size : 5.04 GiB (14%)
Title : Original
Language : English
Default : No
Forced : No
Original source medium : Blu-ray

Text #1
ID : 4
Format : UTF-8
Codec ID : S_TEXT/UTF8
Codec ID/Info : UTF-8 Plain Text
Duration : 2 h 22 min
Bit rate : 1 b/s
Count of elements : 35
Stream size : 1.62 KiB (0%)
Title : Forced
Language : Russian
Default : No
Forced : No

Text #2
ID : 5
Format : UTF-8
Codec ID : S_TEXT/UTF8
Codec ID/Info : UTF-8 Plain Text
Duration : 2 h 22 min
Bit rate : 79 b/s
Count of elements : 1652
Stream size : 83.1 KiB (0%)
Title : Full
Language : Russian
Default : No
Forced : No

Text #3
ID : 6
Format : UTF-8
Codec ID : S_TEXT/UTF8
Codec ID/Info : UTF-8 Plain Text
Duration : 23 s 273 ms
Bit rate : 49 b/s
Count of elements : 6
Stream size : 143 Bytes (0%)
Title : Forced
Language : English
Default : No
Forced : No

Text #4
ID : 7
Format : UTF-8
Codec ID : S_TEXT/UTF8
Codec ID/Info : UTF-8 Plain Text
Duration : 2 h 22 min
Bit rate : 47 b/s
Count of elements : 1714
Stream size : 49.6 KiB (0%)
Title : Full
Language : English
Default : No
Forced : No

Text #5
ID : 8
Format : UTF-8
Codec ID : S_TEXT/UTF8
Codec ID/Info : UTF-8 Plain Text
Duration : 2 h 28 min
Bit rate : 56 b/s
Count of elements : 2168
Stream size : 61.1 KiB (0%)
Title : SDH
Language : English
Default : No
Forced : No

Menu
00:00:00.000 : Chapter 1
00:05:02.052 : Chapter 2
00:09:42.457 : Chapter 3
00:17:43.646 : Chapter 4
00:25:59.933 : Chapter 5
00:33:25.295 : Chapter 6
00:38:51.371 : Chapter 7
00:42:34.594 : Chapter 8
00:54:23.510 : Chapter 9
01:05:52.490 : Chapter 10
01:17:07.456 : Chapter 11
01:25:24.703 : Chapter 12
01:32:50.273 : Chapter 13
01:40:17.178 : Chapter 14
01:52:06.720 : Chapter 15
02:05:28.521 : Chapter 16
02:22:25.537 : Chapter 17




Скачать Последняя дуэль через торрент https://c.radikal.ru/c37/2201/a6/3a22c9c63894.jpg Скачать, смотреть онлайн Последняя дуэль бесплантно в хорошем качестве Описание: Сюжет фильма Ридли Скотта основан на реальной истории последней законной дуэли, которая состоялась во Франции в XIV веке. ... 10 10 3
Торрент: Зарегистрирован [2022-01-07 02:54] · скачан: 80 раз
Статус: √ проверено
Размер: 35.28 GB
Как cкачать? Как скачать Последняя дуэль через торрент | UTorrent

% Раздел Тема Автор DL S | L
Фильмы [HD 720p, 1080p] (Хороший звук DUB, MVO) [ 13.55 GB ] Последняя дуэль / The Last Duel | Дубляж | 1080p, Дубляж (Невафильм Crmek Скачать
11 | 0
Фильмы 2021 [DVDrip, WEB-DLRip, HDrip] (DUB, MVO) [ 2.18 GB ] Последняя дуэль / The Last Duel | Лицензия | BDRip от Twi7ter Twi7ter Скачать
25 | 1
Фильмы 2021 [DVDrip, WEB-DLRip, HDrip] (DUB, MVO) [ 1.46 GB ] Последняя дуэль / The Last Duel | Лицензия | BDRip от Twi7ter Twi7ter Скачать
41 | 2
Фильмы 2021 [DVDrip, WEB-DLRip, HDrip] (DUB, MVO) [ 2.82 GB ] Последняя дуэль / The Last Duel | DUB | HDRip-AVC Lithuania Скачать
2 | 0
Фильмы 2021 [DVDrip, WEB-DLRip, HDrip] (DUB, MVO) [ 3.39 GB ] Последняя дуэль / The Last Duel | Jaskier | BDRip-AVC bober100 Скачать
1 | 0
Фильмы 2021 [DVDrip, WEB-DLRip, HDrip] (DUB, MVO) [ 2.18 GB ] Последняя дуэль / The Last Duel | DUB | BDRip bober100 Скачать
2 | 0
Фильмы 2021 [DVDrip, WEB-DLRip, HDrip] (DUB, MVO) [ 1.46 GB ] Последняя дуэль / The Last Duel | DUB | BDRip bober100 Скачать
1 | 0

28-11-2019 20:33  

Отключить вcю реклaмy на сайте

    Дорогой пользователь! Огромная просьба, поблагодарите релизера, оцените раздачу и оставьте свои комментарий, если Вы скачали Последняя дуэль через торрент бесплатно!!
    Комментировать посты могут только пользователи прошедшие не сложную регистрацию
    Показать сообщения:    


    Последняя дуэль через торрент
    Скачать бесплатно Последняя дуэль
    Последняя дуэль скачать торрент
    Последняя дуэль смотреть онлайн
    Cкачать фильм Последняя дуэль бесплатно
    Последняя дуэль скачать торрент в хорошем качестве
    Последняя дуэль смотреть онлайн бесплатно в хорошем качестве
    Вы не можете начинать темы
    Вы не можете отвечать на сообщения
    Вы не можете редактировать свои сообщения
    Вы не можете удалять свои сообщения
    Вы не можете голосовать в опросах
    Вы не можете прикреплять файлы к сообщениям
    Вы можете скачивать файлы