Всегда рабочее зеркало без VPN и Proxy просто перед .vidak.icu напиши любое слово или цифру, Пример http://iawc.vidak.icu

MVO

2 сезон

1 сезон

1

1 сезон

iTunes

2 сезон

13

1 сезон

Deluxe

pack

Рекомендуем

Пиратка

30

ВАЖНО

RePack

MK11

RePack

jed

RePack

fifa19

RePack

RDR2

RePack

NEED FOR SPEED™ PAYBACK

Кинопоиск HD

6 сезон

 Острые козырьки 6 сезон

Все сериалы

все сериалы на PB.wtf

RePack

FAR CRY 5

Anonymous, нам критически не хватает 5601 руб. на оплату серверов и переферии за Апрель, помоги нам пожалуйста, вся надежда только на тебя. В благодарность мы отключим тебе всю рекламу на сайте!

×
  
Magnet ссылка

Битва при Чосинском водохранилище / Zhang jin hu / Battle at lake changjin (Чэнь Кайгэ, Данте Лам, Цуй Харк) [2021, Боевик, военный, исторический, драма, BDRip 108Op] [DVO] (Колобок) pb.wtf

Битва при Чосинском водохранилище через торрент pb.wtf

Размер: 15.76 GB | Добавлен: 3 мес. 23 д. назад | Торрент скачан:63 раза
Смотреть онлайн Битва при Чосинском водохранилище | Скачать    Ребята, помогите собрать деньги на оплату серверов!!!

07-01-2022 17:23 Битва при Чосинском водохранилище Скачать торрент  

Битва при Чосинском водохранилище /
Zhang jin hu / Battle at lake changjin

Год выпуска: 2021
Страна: Китай, Гонконг
Выпущено: August 1st Film Studio, Bona Film Group
Жанр: Боевик, военный, исторический, драма
Продолжительность: 02:55:47
Перевод: Любительский (двухголосый) | Колобок
Субтитры: английские

Режиссер: Чэнь Кайгэ, Данте Лам, Цуй Харк

В ролях: Джеки Ву, Джексон И, Кевин Ли, Кай Чжэн, Ханьюй Чжан, Цзюнь Ху, Явэнь Чжу, Сюань Хуан, Темур Мамисашвили, Ли Чэнь

Описание: Зима 1950 года, Корейская война. На восточном побережье Корейского полуострова в районе водохранилища Чосин 9-й корпус китайских народных добровольцев вступает в жестокое противостояние с корпусом ООН (в составе 1-й дивизии морской пехоты США, полка 7-й пехотной дивизии США и батальона коммандос Великобритании).

rating

Качество: BDRip 108Op
Формат: MKV
Видео: 1920x816 (2.35:1), 24.000 fps, AVC, 12.0 Mb/s
Аудио 1: Russian, 48.0 KHz, AC3, 2 ch, 192 Kbps - | Колобок
Аудио 2: Chinese, 48.0 KHz, AC3, 6 ch, 640 Kbps - Original
скриншот  скриншот  скриншот  

General
Unique ID : 29953680635838638689359224651910072886 (0x1688DE79EFFAC4C59A7CD1C5C08DCA36)
Complete name : The.Battle.at.Lake.Changjin.2021.1080p.BluRay.Rus.Chi.WiKi.mkv
Format : Matroska
Format version : Version 4
File size : 15.8 GiB
Duration : 2 h 55 min
Overall bit rate : 12.8 Mb/s
Encoded date : UTC 2022-02-03 19:12:27
Writing application : mkvmerge v64.0.0 ('Willows') 64-bit
Writing library : libebml v1.4.2 + libmatroska v1.6.4

Video
ID : 1
Format : AVC
Format/Info : Advanced Video Codec
Format profile : High@L4.1
Format settings : CABAC / 5 Ref Frames
Format settings, CABAC : Yes
Format settings, Reference : 5 frames
Codec ID : V_MPEG4/ISO/AVC
Duration : 2 h 55 min
Bit rate : 12.0 Mb/s
Width : 1 920 pixels
Height : 816 pixels
Display aspect ratio : 2.35:1
Frame rate mode : Constant
Frame rate : 24.000 FPS
Color space : YUV
Chroma subsampling : 4:2:0
Bit depth : 8 bits
Scan type : Progressive
Bits/(Pixel*Frame) : 0.319
Stream size : 14.7 GiB (93%)
Title : WiKi
Writing library : x264 core 133 r2334 a3ac64b
Encoding settings : cabac=1 / ref=5 / deblock=1:-3:-3 / analyse=0x3:0x113 / me=umh / subme=11 / psy=1 / psy_rd=1.00:0.00 / mixed_ref=1 / me_range=64 / chroma_me=1 / trellis=2 / 8x8dct=1 / cqm=0 / deadzone=21,11 / fast_pskip=0 / chroma_qp_offset=-4 / threads=36 / lookahead_threads=6 / sliced_threads=0 / nr=0 / decimate=0 / interlaced=0 / bluray_compat=0 / constrained_intra=0 / bframes=8 / b_pyramid=2 / b_adapt=2 / b_bias=0 / direct=3 / weightb=1 / open_gop=0 / weightp=2 / keyint=250 / keyint_min=24 / scenecut=40 / intra_refresh=0 / rc=2pass / mbtree=0 / bitrate=12000 / ratetol=1.0 / qcomp=0.60 / qpmin=0 / qpmax=69 / qpstep=4 / cplxblur=20.0 / qblur=0.5 / ip_ratio=1.40 / pb_ratio=1.30 / aq=1:0.80
Language : English
Default : Yes
Forced : No

Audio #1
ID : 2
Format : AC-3
Format/Info : Audio Coding 3
Commercial name : Dolby Digital
Codec ID : A_AC3
Duration : 2 h 55 min
Bit rate mode : Constant
Bit rate : 192 kb/s
Channel(s) : 2 channels
Channel layout : L R
Sampling rate : 48.0 kHz
Frame rate : 31.250 FPS (1536 SPF)
Compression mode : Lossy
Stream size : 241 MiB (1%)
Title : Двухголосый закадровый, Колобок
Language : Russian
Service kind : Complete Main
Default : Yes
Forced : No

Audio #2
ID : 3
Format : AC-3
Format/Info : Audio Coding 3
Commercial name : Dolby Digital
Format settings : Dolby Surround EX
Codec ID : A_AC3
Duration : 2 h 55 min
Bit rate mode : Constant
Bit rate : 640 kb/s
Channel(s) : 6 channels
Channel layout : L R C LFE Ls Rs
Sampling rate : 48.0 kHz
Frame rate : 31.250 FPS (1536 SPF)
Compression mode : Lossy
Stream size : 805 MiB (5%)
Title : Original
Language : Chinese
Service kind : Complete Main
Default : No
Forced : No

Text
ID : 4
Format : UTF-8
Codec ID : S_TEXT/UTF8
Codec ID/Info : UTF-8 Plain Text
Duration : 2 h 44 min
Bit rate : 39 b/s
Count of elements : 1958
Stream size : 47.4 KiB (0%)
Title : Full
Language : English
Default : No
Forced : No

pb.wtf



Скачать Битва при Чосинском водохранилище через торрент https://i116.fastpic.org/big/2022/0103/7a/c56890929c63787273bfedecf050cf7a.jpeg Скачать, смотреть онлайн Битва при Чосинском водохранилище бесплантно в хорошем качестве Описание: Зима 1950 года, Корейская война. На восточном побережье Корейского полуострова в районе водохранилища Чосин 9-й корпус китайских ... 10 10 5
Торрент: Зарегистрирован [2022-02-03 21:27] · скачан: 63 раз
Статус: T временная
Размер: 15.76 GB
Как cкачать? Как скачать Битва при Чосинском водохранилище через торрент | UTorrent

% Раздел Тема Автор DL S | L
T Фильмы (мультфильмы) cо спонсором показа (Новинки AVI/MKV) [ 2.06 GB ] Битва при Чосинском водохранилище / Zhang jin hu / Battle at lake changjin [2021 военный исторический WEB-DLRip] [DVO] killermax2013 Скачать
5 | 0
T Фильмы (мультфильмы) cо спонсором показа (Новинки AVI/MKV) [ 3.89 GB ] Битва при Чосинском водохранилище / Zhang jin hu / Battle at lake changjin [2021 военный исторический TS 72Op] MVO ["Синема УС"] bober100 Скачать
1 | 0


Последний раз редактировалось: killermax2013 (2022-01-11 11:40), всего редактировалось 1 раз

28-11-2019 20:33  

Отключить всю рекламу на сайте

    Дорогой пользователь! Огромная просьба, поблагодарите релизера, оцените раздачу и оставьте свои комментарий, если Вы скачали Битва при Чосинском водохранилище через торрент бесплатно!
    Комментировать посты могут только пользователи прошедшие не сложную регистрацию
    Показать сообщения:    

    Битва при Чосинском водохранилище через торрент
    Скачать бесплатно Битва при Чосинском водохранилище
    Битва при Чосинском водохранилище скачать торрент
    Битва при Чосинском водохранилище смотреть онлайн
    Cкачать фильм Битва при Чосинском водохранилище бесплатно
    Битва при Чосинском водохранилище скачать торрент в хорошем качестве
    Битва при Чосинском водохранилище смотреть онлайн бесплатно в хорошем качестве


    Вы не можете начинать темы
    Вы не можете отвечать на сообщения
    Вы не можете редактировать свои сообщения
    Вы не можете удалять свои сообщения
    Вы не можете голосовать в опросах
    Вы не можете прикреплять файлы к сообщениям
    Вы можете скачивать файлы