Всегда рабочее зеркало без VPN и Proxy просто перед .vidak.icu напиши любое слово или цифру, Пример http://25ob.vidak.icu

MVO

2 сезон

1 сезон

1

1 сезон

iTunes

2 сезон

13

1 сезон

Deluxe

pack

Рекомендуем

Пиратка

30

ВАЖНО

RePack

MK11

RePack

jed

RePack

fifa19

RePack

RDR2

RePack

NEED FOR SPEED™ PAYBACK

Кинопоиск HD

6 сезон

 Острые козырьки 6 сезон

Все сериалы

все сериалы на PB.wtf

RePack

FAR CRY 5

Anonymous, нам критически не хватает 5601 руб. на оплату серверов и переферии за Апрель, помоги нам пожалуйста, вся надежда только на тебя. В благодарность мы отключим тебе всю рекламу на сайте!

×
  
Magnet ссылка

Сергий против нечисти / Сезон: 1 / Серии: 1-6 из 6 (Кирилл Кузин) [2022, Комедия, ужасы, фэнтези, боевик, WEBRip-AVC] pb.wtf

Сергий против нечисти через торрент pb.wtf

Раздают: 1 [ 0 KB/s ]
Размер: 1.29 GB | Добавлен: 4 мес. 10 д. назад | Торрент скачан:82 раза
Смотреть онлайн Сергий против нечисти | Скачать    Ребята, помогите собрать деньги на оплату серверов!!!

07-01-2022 18:08 Сергий против нечисти Скачать торрент  

Сергий против нечисти
Год выпуска: 2022
Страна: Россия
Студия: ООО «Паник продакшн» по заказу ООО «МТС Медиа»
Жанр: Комедия, ужасы, фэнтези, боевик
Продолжительность: ~ 00:15:00
Перевод: Не требуется
Субтитры: отсутствуют

Режиссер: Кирилл Кузин



В ролях: Роман Маякин, Лукерья Ильяшенко, Ирина Розанова, Дмитрий Куличков, Николай Шрайбер, Арсений Сергеев, Ольга Веникова, Михаил Осипов, Ирина Вилкова (II), Екатерина Фисун, Наталья Тетенова, Эрик Яралов, Евгений Потапенко, Рамиль Сабитов, Амаду Мамадаков, Алексей Сахаров (II), Сергей Стёпин, Геннадий Егоров (II), Дмитрий Первушин, Влад Волков, Сергей Фатьянов

Описание: Бывший священник Сергий, отстраненный от служения в церкви, стал охотником за нечистью. В процессе охоты он сталкивается со следователем Екатериной, которой только предстоит познакомиться с миром сверхъестественного. Сергий и Катя становятся командой и вместе начинают борьбу с фольклорными злодеями — Кощеем, Баюном и прочими.

Качество: WEBRip-AVC
Формат: MKV

Видео: MPEG-4 AVC, ~ 1600 Кбит/с, 1024x432, 25 кадр/с
Аудио #01: AC3, 48,0 КГц, 2 ch, 192 Кбит/с | C цензурой
Аудио #02: AC3, 48,0 КГц, 2 ch, 192 Кбит/с |
Без цензуры 18+
скриншот  скриншот  скриншот  скриншот  скриншот  

General
Unique ID : 178863605081712375245677738262370242113 (0x868FE096A755AD1B84C380C09A58CE41)
Complete name : F:\Сергий против нечисти.(2021).WEBRip.(AVC).Files-x\01.Сергий против нечисти.(2021).WEBRip.(AVC).by.Серый1779.Files-x.mkv
Format : Matroska
Format version : Version 4 / Version 2
File size : 229 MiB
Duration : 16 min 7 s
Overall bit rate : 1 985 kb/s
Movie name : Sergij.protiv.nechisti.S01.E01.2021.WEB-DL.1080p
Encoded date : UTC 2022-01-05 07:36:35
Writing application : mkvmerge v32.0.0 ('Astral Progressions') 64-bit
Writing library : libebml v1.3.7 + libmatroska v1.5.0
Attachments : poster.jpg

Video
ID : 1
Format : AVC
Format/Info : Advanced Video Codec
Format profile : High@L4.1
Format settings : CABAC / 9 Ref Frames
Format settings, CABAC : Yes
Format settings, RefFrames : 9 frames
Codec ID : V_MPEG4/ISO/AVC
Duration : 16 min 7 s
Bit rate : 1 600 kb/s
Width : 1 024 pixels
Height : 432 pixels
Display aspect ratio : 2.40:1
Frame rate mode : Constant
Frame rate : 25.000 FPS
Color space : YUV
Chroma subsampling : 4:2:0
Bit depth : 8 bits
Scan type : Progressive
Bits/(Pixel*Frame) : 0.145
Stream size : 184 MiB (81%)
Writing library : x264 core 146 r2538 121396c
Encoding settings : cabac=1 / ref=9 / deblock=1:-2:-1 / analyse=0x3:0x133 / me=umh / subme=9 / psy=1 / psy_rd=1.00:0.15 / mixed_ref=1 / me_range=32 / chroma_me=1 / trellis=2 / 8x8dct=1 / cqm=0 / deadzone=21,11 / fast_pskip=0 / chroma_qp_offset=-3 / threads=18 / lookahead_threads=3 / sliced_threads=0 / nr=0 / decimate=1 / interlaced=0 / bluray_compat=0 / constrained_intra=0 / bframes=9 / b_pyramid=2 / b_adapt=2 / b_bias=0 / direct=1 / weightb=1 / open_gop=0 / weightp=2 / keyint=250 / keyint_min=25 / scenecut=40 / intra_refresh=0 / rc=2pass / mbtree=0 / bitrate=1600 / ratetol=1.0 / qcomp=0.60 / qpmin=0 / qpmax=69 / qpstep=4 / cplxblur=20.0 / qblur=0.5 / ip_ratio=1.40 / pb_ratio=1.30 / aq=2:1.00
Default : Yes
Forced : No
Color range : Limited
Color primaries : BT.709
Transfer characteristics : BT.709
Matrix coefficients : BT.709

Audio #1
ID : 2
Format : AC-3
Format/Info : Audio Coding 3
Format settings, Endianness : Big
Codec ID : A_AC3
Duration : 16 min 7 s
Bit rate mode : Constant
Bit rate : 192 kb/s
Channel(s) : 2 channels
Channel positions : Front: L R
Sampling rate : 48.0 kHz
Frame rate : 31.250 FPS (1536 SPF)
Bit depth : 16 bits
Compression mode : Lossy
Stream size : 22.1 MiB (10%)
Title : Censor
Language : Russian
Service kind : Complete Main
Default : Yes
Forced : Yes

Audio #2
ID : 3
Format : AC-3
Format/Info : Audio Coding 3
Format settings, Endianness : Big
Codec ID : A_AC3
Duration : 16 min 7 s
Bit rate mode : Constant
Bit rate : 192 kb/s
Channel(s) : 2 channels
Channel positions : Front: L R
Sampling rate : 48.0 kHz
Frame rate : 31.250 FPS (1536 SPF)
Bit depth : 16 bits
Compression mode : Lossy
Stream size : 22.1 MiB (10%)
Title : 18+
Language : Russian
Service kind : Complete Main
Default : No
Forced : No

Раздача ведётся путём добавления новых серий, при каждом добавлении создаётся новый торрент. Чтобы начать докачку новой серии, пользователям необходимо сделать следующее:
- Остановить скачивание.
- Удалить старый торрент у себя из клиента (старые серии удалять не надо).
- Скачать новый торрент и запустить его у себя в клиенте вместо старого, при этом указать клиенту путь в старую папку куда и должно происходить скачивание новых серий.
Ваш клиент при этом должен произвести хеширование (проверку) старой папки (если не производит сам - помогите ему сделать это), и будет докачивать только те серии которых у вас ещё нет. Старые серии при этом не удаляются, а продолжают раздаваться!
pb.wtf



Скачать Сергий против нечисти через торрент https://c.radikal.ru/c21/2201/bd/bdb7494a2553.jpg Скачать, смотреть онлайн Сергий против нечисти бесплантно в хорошем качестве Описание: Бывший священник Сергий, отстраненный от служения в церкви, стал охотником за нечистью. В процессе охоты он сталкивается со ... 8.4 10 7
Торрент: Зарегистрирован [2022-01-15 04:38] · скачан: 82 раз
Статус: √ проверено
Размер: 1.29 GB
Как cкачать? Как скачать Сергий против нечисти через торрент | UTorrent

% Раздел Тема Автор DL S | L
Наши сериалы [ 4.07 GB ] Сергий против нечисти / Сезон: 1 / Серии: 1-6 из 6 [2022 WEBRip 1080p] bober100 Скачать
1 | 0
Наши сериалы [ 1.46 GB ] Сергий против нечисти / Сезон: 1 / Серии: 1-6 из 6 [2022 WEBRip] bober100 Скачать
4 | 0


Последний раз редактировалось: bober100 (2022-01-15 04:38), всего редактировалось 1 раз

28-11-2019 20:33  

Отключить всю рекламу на сайте

13-01-2022 08:49 Сергий против нечисти Скачать торрент  

бу га га)))))зашло на раз!!!pb.wtf



    Дорогой пользователь! Огромная просьба, поблагодарите релизера, оцените раздачу и оставьте свои комментарий, если Вы скачали Сергий против нечисти через торрент бесплатно!
    Комментировать посты могут только пользователи прошедшие не сложную регистрацию
    Показать сообщения:    

    Сергий против нечисти через торрент
    Скачать бесплатно Сергий против нечисти
    Сергий против нечисти скачать торрент
    Сергий против нечисти смотреть онлайн
    Cкачать фильм Сергий против нечисти бесплатно
    Сергий против нечисти скачать торрент в хорошем качестве
    Сергий против нечисти смотреть онлайн бесплатно в хорошем качестве


    Вы не можете начинать темы
    Вы не можете отвечать на сообщения
    Вы не можете редактировать свои сообщения
    Вы не можете удалять свои сообщения
    Вы не можете голосовать в опросах
    Вы не можете прикреплять файлы к сообщениям
    Вы можете скачивать файлы