Достать ножи: Стеклянная луковица

MVO

Добыча

Дубляж

Уэнсдэй

1 сезон

Тор

Дубляж

13 клиническая

1 сезон

Жестокая ночь

MVO

Одни из нас

1 сезон

Deluxe

pack

Рекомендуем

30

Пиратка

ВАЖНО

ВАЖНО

Ghostwire

Пиратка

jed

RePack

nioh2

RePack

RDR2

RePack

NEED FOR SPEED™ PAYBACK

RePack

скачать торрент

Кинопоиск HD

Острые козырьки 6 сезон

6 сезон

FAR CRY 6

RePack

скачать торрент

Лицензия

скачать торрент

MVO

1

1 сезон

скачать торрент

1 сезон

скачать торрент

Лицензия

  

Ряд 19 (Александр Бабаев) [2021, Триллер, WEB-DLRip-AVC] RUS [OKKO] от ExKinoRay

Ряд 19 через торрент pb.wtf

Размер: 1.27 GB | Добавлен: 1 год назад | Торрент скачан:195 раз
Смотреть онлайн | Скачать | Поддержите нас   

08-01-2022 10:04 Ряд 19 Скачать торрент  


Ряд 19
Информация Описание:
Название: Ряд 19
Год выхода: 2021
Жанр: Триллер
Режиссер: Александр Бабаев

В ролях: Светлана Иванова, Вольфганг Черни, Марта Кесслер, Екатерина Вилкова, Анатолий Кот, Виталия Корниенко, Денис Ясик, Анна Глаубэ, Виктория Корлякова, Иван Верховых

Описание: Молодая врач Катя с 6-летней дочерью Дианой в страшную непогоду летит ночным рейсом. В полупустом салоне самолёта начинают происходить необъяснимые события, выходящие за рамки реальности. Кате предстоит посмотреть в глаза собственному страху и заново пережить главный кошмар свой детский кошмар.



Страна: Россия
Студия: Централ Партнершип, Киностудия КИТ, IKa film
Продолжительность: 01:17:42
Перевод: Не требуется (Русский) - ОККО

Информация о файле:
Кодек: AVC
Формат: MKV
Качество: WEB-DLRip-AVC
Видео: MPEG-4 AVC, 1024x428, 24.000 fps, 2150 kb/s
Аудио RU: AC3, 2 ch, 48 kHz, 192 kbps

семпл
x264 info: frame I:860 Avg QP:12.48 size: 67491
x264 info: frame P:25197 Avg QP:15.33 size: 24657
x264 info: frame B:85835 Avg QP:16.49 size: 6671
x264 info: consecutive B-frames: 3.3% 4.1% 9.4% 20.5% 18.5% 14.2% 5.6% 4.6% 17.8% 1.3% 0.5%
General
Unique ID : 335976049328061024788414923323350049177 (0xFCC2A2267CFBC2B8A949AEAB6D1DE199)
Complete name : D:uTorrentРипы wolf1245Ryad.19.2021.RUS.OKKO.WEB-DLRip-AVC.[wolf1245.ExKinoRay].mkv
Format : Matroska
Format version : Version 4
File size : 1.27 GiB
Duration : 1 h 17 min
Overall bit rate : 2 342 kb/s
Movie name : Ryad.19.2021.RUS.OKKO.WEB-DLRip-AVC.[wolf1245.ExKinoRay]
Encoded date : UTC 2022-01-08 09:52:56
Writing application : mkvmerge v64.0.0 ('Willows') 64-bit
Writing library : libebml v1.4.2 + libmatroska v1.6.4
Video
ID : 1
Format : AVC
Format/Info : Advanced Video Codec
Format profile : [email protected]
Format settings : CABAC / 12 Ref Frames
Format settings, CABAC : Yes
Format settings, Reference frames : 12 frames
Codec ID : V_MPEG4/ISO/AVC
Duration : 1 h 17 min
Bit rate : 2 150 kb/s
Width : 1 024 pixels
Height : 428 pixels
Display aspect ratio : 2.40:1
Frame rate mode : Constant
Frame rate : 24.000 FPS
Color space : YUV
Chroma subsampling : 4:2:0
Bit depth : 8 bits
Scan type : Progressive
Bits/(Pixel*Frame) : 0.204
Stream size : 1.17 GiB (92%)
Title : -=[wolf1245.ExKinoRay]=-
Writing library : x264 core 163 r3060 5db6aa6
Encoding settings : cabac=1 / ref=12 / deblock=1:-2:-2 / analyse=0x3:0x133 / me=umh / subme=10 / psy=1 / psy_rd=1.00:0.10 / mixed_ref=1 / me_range=32 / chroma_me=1 / trellis=2 / 8x8dct=1 / cqm=0 / deadzone=21,11 / fast_pskip=1 / chroma_qp_offset=-3 / threads=10 / lookahead_threads=2 / sliced_threads=0 / nr=0 / decimate=0 / interlaced=0 / bluray_compat=0 / constrained_intra=0 / bframes=10 / b_pyramid=2 / b_adapt=2 / b_bias=0 / direct=3 / weightb=1 / open_gop=0 / weightp=2 / keyint=240 / keyint_min=24 / scenecut=40 / intra_refresh=0 / rc_lookahead=60 / rc=2pass / mbtree=0 / bitrate=2150 / ratetol=1.0 / qcomp=0.60 / qpmin=0 / qpmax=69 / qpstep=4 / cplxblur=20.0 / qblur=0.5 / vbv_maxrate=50000 / vbv_bufsize=62500 / nal_hrd=none / filler=0 / ip_ratio=1.40 / pb_ratio=1.30 / aq=1:1.00
Language : Russian
Default : Yes
Forced : No
Color range : Limited
Color primaries : BT.709
Transfer characteristics : BT.709
Matrix coefficients : BT.709
Audio
ID : 2
Format : AC-3
Format/Info : Audio Coding 3
Commercial name : Dolby Digital
Codec ID : A_AC3
Duration : 1 h 17 min
Bit rate mode : Constant
Bit rate : 192 kb/s
Channel(s) : 2 channels
Channel layout : L R
Sampling rate : 48.0 kHz
Frame rate : 31.250 FPS (1536 SPF)
Compression mode : Lossy
Stream size : 107 MiB (8%)
Title : RUS | OKKO
Language : Russian
Service kind : Complete Main
Default : Yes
Forced : Yes
Релиз от: VK релиз-группы




Скачать Ряд 19 через торрент https://i116.fastpic.org/big/2022/0108/1f/632f574c10177941c3da4a0026ef831f.jpg Скачать, смотреть онлайн Ряд 19 бесплантно в хорошем качестве Описание:Название: Ряд 19Год выхода: 2021Жанр: Триллер Режиссер: Александр БабаевВ ролях: Светлана Иванова, Вольфганг Черни, Марта ... 8.9 10 8
Торрент: Зарегистрирован [2022-01-08 10:04] · скачан: 195 раз
Статус: √ проверено
Размер: 1.27 GB
Как cкачать? Как скачать Ряд 19 через торрент | UTorrent

% Раздел Тема Автор DL S | L
Наши новые фильмы 2020 - 2023 [ 716 MB ] Ряд 19 | | HDRip, coc900 Скачать
1 | 0
Наши фильмы (Blu-ray, BD-Remux, HDDVD) [ 18.39 GB ] Ряд 19 | | 1080p bober100 Скачать
1 | 0
Наши фильмы (HD, WEB-DL 720p, 1080p) [ 6.34 GB ] Ряд 19 | | 1080p bober100 Скачать
1 | 1
Наши новые фильмы 2020 - 2023 [ 1.09 GB ] Ряд 19 | | DLRip-AVC bober100 Скачать
1 | 0
Наши фильмы (HD, WEB-DL 720p, 1080p) [ 1.83 GB ] Ряд 19 | | 720p bober100 Скачать
1 | 0
Наши новые фильмы 2020 - 2023 [ 1.09 GB ] Ряд 19 | | DLRip bober100 Скачать
1 | 0

28-11-2019 20:33  


Отключить вcю реклaмy на сайте, в т.ч. и в плеере онлайн просмотра!

    Дорогой пользователь! Огромная просьба, поблагодарите релизера, оцените раздачу и оставьте свои комментарий, если Вы скачали Ряд 19 через торрент бесплатно!!
    Комментировать посты могут только пользователи прошедшие не сложную регистрацию
    Показать сообщения:    


    Ряд 19 через торрент
    Скачать бесплатно Ряд 19
    Ряд 19 скачать торрент
    Ряд 19 смотреть онлайн
    Cкачать фильм Ряд 19 бесплатно
    Ряд 19 скачать торрент в хорошем качестве
    Ряд 19 смотреть онлайн бесплатно в хорошем качестве
    Вы не можете начинать темы
    Вы не можете отвечать на сообщения
    Вы не можете редактировать свои сообщения
    Вы не можете удалять свои сообщения
    Вы не можете голосовать в опросах
    Вы не можете прикреплять файлы к сообщениям
    Вы можете скачивать файлы
    Ряд 19 [2021, Триллер, WEB-DLRip-AVC] RUS [OKKO] от ExKinoRay смотреть онлайн, скачать торрент picoco.icu