Всегда рабочее зеркало просто перед .vidak.icu напиши любое слово или цифру, Пример http://ln0.vidak.icu

>

7.4

iTunes

7.4

2 сезон

6.6

iTunes

1

7.4

2 сезон

7.2

iTunes

6.0

MVO

13

6.1

iTunes

8.3

Пиратка

30

ULTIMATE

pack

9.9

Лицензия

ВАЖНО

ИГРА 18+

pack

7.3

RePack

MK11

7.7

RePack

jed

7.8

RePack

fifa19

8.5

RePack

RDR2

RePack

NEED FOR SPEED™ PAYBACK

1 сезон

9 сезон

Бесстыжие 9 сезон

Все сериалы

все сериалы на PB.wtf

RePack

FAR CRY 5

Anonymous, добрый день, мы катастрофически не успеваем собрать деньги на оплату серверов, помогите нам пожалуйста 5,10,15р., для нас важна любая помощь . В качестве благодарности мы отключим Вам всю рекламу на сайте (укажите свой ник в строку Ваше имя)!

×
  
Magnet ссылка

Охота на волка / Серенький волчок / Hunter Hunter (Шон Линден) [2020, Триллер, драма, BDRip-AVC] MVO [КиноПоиск HD] pb.wtf

Охота на волка через торрент pb.wtf

Раздают: 10 [ 155 KB/s ]
Размер: 2.19 GB | Добавлен: 13 д. назад | Торрент скачан:122 раза
Смотреть онлайн Охота на волка | Скачать    Ребята, помогите собрать деньги на оплату серверов!!!

08-01-2022 11:32 Охота на волка Скачать торрент  

Охота на волка | Серенький волчок
Hunter Hunter

Год выпуска: 2020
Страна: Канада, США
Студия: Julijette, Mar Vista Productions, Particular Crowd
Жанр: Триллер, драма
Продолжительность: 01:33:09
Перевод: Профессиональный (многоголосый, закадровый) | КиноПоиск HD
Субтитры: английские (Full, SDH)

Режиссер: Шон Линден

rating

В ролях: Камилль Салливан, Саммер Х. Хауэлл, Девон Сава, Ник Стал, Гэбриел Дэниелс, Лорен Кокрейн, Джейд Майкл, Эрик Атхавале, Карл Тордарсон, Блейк Тейлор

Описание: Джозеф с женой и 12-летней дочерью живёт в лесном доме. Семейство зарабатывает продажей шкурок пойманных зверей, но последнее время сводить концы с концами становится всё труднее. А когда в окрестностях появляется хитрый волк и начинает опустошать ловушки, Джозеф решает разобраться с ним один на один и отправляется на охоту.

Качество: BDRip-AVC
Формат: MKV

Видео: AVC, 1140x476 (2,40:1), 2462 kbps, 23.976 fps
Аудио#1: 48 kHz, AC3, 5.1, 448 kbps | RUS
Аудио#2: 48 kHz, AC3, 5.1, 448 kbps | ENG
скриншот  скриншот  скриншот  скриншот  скриншот  

Общее
Уникальный идентификатор : 14575890812583510290676597583441349566 (0xAF736E6BBAAE05861F7AAB201F0CBBE)
Полное имя : D:\Hunter.Hunter.2020.DUAL.BDRip.x264.-HELLYWOOD.mkv
Формат : Matroska
Версия формата : Version 4
Размер файла : 2,19 Гбайт
Продолжительность : 1 ч. 33 м.
Общий поток : 3 360 Кбит/сек
Название фильма : Hunter Hunter (2020)
Дата кодирования : UTC 2022-01-07 13:06:28
Программа кодирования : mkvmerge v62.0.0 ('Apollo') 64-bit
Библиотека кодирования : libebml v1.4.2 + libmatroska v1.6.4

Видео
Идентификатор : 1
Формат : AVC
Формат/Информация : Advanced Video Codec
Профиль формата : High@L4.1
Настройки формата : CABAC / 12 Ref Frames
Параметр CABAC формата : Да
Параметр RefFrames формата : 12 кадров
Идентификатор кодека : V_MPEG4/ISO/AVC
Продолжительность : 1 ч. 33 м.
Битрейт : 2 462 Кбит/сек
Ширина : 1 140 пикселей
Высота : 476 пикселей
Соотношение сторон : 2,40:1
Режим частоты кадров : Постоянный
Частота кадров : 23,976 (24000/1001) кадра/сек
Цветовое пространство : YUV
Субдискретизация насыщенности : 4:2:0
Битовая глубина : 8 бит
Тип развёртки : Прогрессивная
Бит/(Пиксели*Кадры) : 0.189
Размер потока : 1,56 Гбайт (71%)
Заголовок : potroks
Библиотека кодирования : x264 core 163
Настройки программы : cabac=1 / ref=12 / deblock=1:-2:-2 / analyse=0x3:0x133 / me=umh / subme=11 / psy=1 / psy_rd=1.00:0.00 / mixed_ref=1 / me_range=32 / chroma_me=0 / trellis=2 / 8x8dct=1 / cqm=0 / deadzone=21,11 / fast_pskip=0 / chroma_qp_offset=-2 / threads=19 / lookahead_threads=3 / sliced_threads=0 / nr=0 / decimate=1 / interlaced=0 / bluray_compat=0 / constrained_intra=0 / bframes=10 / b_pyramid=2 / b_adapt=2 / b_bias=0 / direct=0 / weightb=1 / open_gop=0 / weightp=2 / keyint=240 / keyint_min=23 / scenecut=40 / intra_refresh=0 / rc_lookahead=100 / rc=2pass / mbtree=0 / bitrate=2462 / ratetol=1.0 / qcomp=0.70 / qpmin=0 / qpmax=69 / qpstep=5 / cplxblur=20.0 / qblur=0.5 / vbv_maxrate=50000 / vbv_bufsize=62800 / nal_hrd=none / filler=0 / ip_ratio=1.40 / pb_ratio=1.30 / aq=1:0.80
Язык : English
Default : Да
Forced : Нет

Аудио #1
Идентификатор : 2
Формат : AC-3
Формат/Информация : Audio Coding 3
Коммерческое название : Dolby Digital
Идентификатор кодека : A_AC3
Продолжительность : 1 ч. 33 м.
Вид битрейта : Постоянный
Битрейт : 448 Кбит/сек
Каналы : 6 каналов
Channel layout : L R C LFE Ls Rs
Частота : 48,0 КГц
Частота кадров : 31,250 кадров/сек (1536 SPF)
Метод сжатия : С потерями
Размер потока : 298 Мбайт (13%)
Заголовок : MVO | DD 5.1 @ 448 kbps - KinoPoshuk HD
Язык : Russian
Service kind : Complete Main
Default : Да
Forced : Нет

Аудио #2
Идентификатор : 3
Формат : AC-3
Формат/Информация : Audio Coding 3
Коммерческое название : Dolby Digital
Идентификатор кодека : A_AC3
Продолжительность : 1 ч. 33 м.
Вид битрейта : Постоянный
Битрейт : 448 Кбит/сек
Каналы : 6 каналов
Channel layout : L R C LFE Ls Rs
Частота : 48,0 КГц
Частота кадров : 31,250 кадров/сек (1536 SPF)
Битовая глубина : 32 бит
Метод сжатия : С потерями
Размер потока : 298 Мбайт (13%)
Заголовок : Original | DD 5.1 @ 448 kbps
Язык : English
Service kind : Complete Main
Default : Нет
Forced : Нет

Текст #1
Идентификатор : 4
Формат : UTF-8
Идентификатор кодека : S_TEXT/UTF8
Идентификатор кодека/Информация : UTF-8 Plain Text
Заголовок : Full
Язык : English
Default : Нет
Forced : Нет

Текст #2
Идентификатор : 5
Формат : UTF-8
Идентификатор кодека : S_TEXT/UTF8
Идентификатор кодека/Информация : UTF-8 Plain Text
Заголовок : SDH
Язык : English
Default : Нет
Forced : Нет

Меню
00:00:00.000 : en:Chapter 01
00:08:04.692 : en:Chapter 02
00:16:31.407 : en:Chapter 03
00:23:29.741 : en:Chapter 04
00:30:48.846 : en:Chapter 05
00:38:18.379 : en:Chapter 06
00:45:41.738 : en:Chapter 07
00:54:09.955 : en:Chapter 08
01:00:42.847 : en:Chapter 09
01:08:37.404 : en:Chapter 10
01:16:06.770 : en:Chapter 11
01:22:55.595 : en:Chapter 12

pb.wtf



Скачать Охота на волка через торрент https://i3.imageban.ru/out/2022/01/07/4de7464a12e6490ab2f6c0e83bfda35b.png Скачать, смотреть онлайн Охота на волка бесплантно в хорошем качестве Описание: Джозеф с женой и 12-летней дочерью живёт в лесном доме. Семейство зарабатывает продажей шкурок пойманных зверей, но последнее ... 8.9 10 8
Info! Золотая раздача, скачанное не засчитывается.
Торрент: Зарегистрирован [2022-01-08 11:32] · скачан: 122 раз
Статус: √ проверено
Размер: 2.19 GB
Как cкачать? Как скачать Охота на волка через торрент | UTorrent

% Раздел Тема Автор DL S | L
Фильмы 2019-2020 [DVDrip, WEB-DLRip, HDrip] (DUB, MVO) [ 1.46 GB ] Охота на волка / Серенький волчок / Hunter Hunter [2020 HDRip] MVO [КиноПоиск HD] bober100 Скачать
11 | 0
Фильмы [HD 720p, 1080p] (Хороший звук DUB, MVO) [ 4.26 GB ] Охота на волка / Серенький волчок / Hunter Hunter [2020 BDRip 720p] MVO [КиноПоиск HD] bober100 Скачать
7 | 0
Фильмы [HD 720p, 1080p] (Хороший звук DUB, MVO) [ 11.24 GB ] Охота на волка / Серенький волчок / Hunter Hunter [2020 BDRip 1080p] MVO [КиноПоиск HD] bober100 Скачать
16 | 0


Последний раз редактировалось: bober100 (2022-01-11 02:58), всего редактировалось 1 раз

28-11-2019 20:33  

Отключить всю рекламу на сайте

08-01-2022 15:38 Охота на волка Скачать торрент  

куда делся волк, что это за незнакомец? ниче не понял.pb.wtf



12-01-2022 10:14 Охота на волка Скачать торрент  

BorislavShakur писал(а):

куда делся волк, что это за незнакомец? ниче не понял.

согласен, ни хрена не понятно, но очень интересноpb.wtf



    Дорогой пользователь! Огромная просьба, поблагодарите релизера, оцените раздачу и оставьте свои комментарий, если Вы скачали Охота на волка через торрент бесплатно!
    Комментировать посты могут только пользователи прошедшие не сложную регистрацию
    Показать сообщения:    

    Охота на волка через торрент
    Скачать бесплатно Охота на волка
    Охота на волка скачать торрент
    Охота на волка смотреть онлайн
    Cкачать фильм Охота на волка бесплатно
    Охота на волка скачать торрент в хорошем качестве
    Охота на волка смотреть онлайн бесплатно в хорошем качестве


    Вы не можете начинать темы
    Вы не можете отвечать на сообщения
    Вы не можете редактировать свои сообщения
    Вы не можете удалять свои сообщения
    Вы не можете голосовать в опросах
    Вы не можете прикреплять файлы к сообщениям
    Вы можете скачивать файлы