Всегда рабочее зеркало без VPN и Proxy просто перед .vidak.icu напиши любое слово или цифру, Пример http://djlb.vidak.icu

MVO

2 сезон

2 сезон

1

1 сезон

iTunes

2 сезон

13

1 сезон

Распродажа

pack

Рекомендуем

Пиратка

30

ВАЖНО

RePack

MK11

RePack

jed

RePack

fifa19

RePack

RDR2

RePack

NEED FOR SPEED™ PAYBACK

Кинопоиск HD

6 сезон

 Острые козырьки 6 сезон

Все сериалы

все сериалы на PB.wtf

RePack

FAR CRY 5

Anonymous, нам критически не хватает 5601 руб. на оплату серверов и переферии за Апрель, помоги нам пожалуйста, вся надежда только на тебя. В благодарность мы отключим тебе всю рекламу на сайте!

×
  
Magnet ссылка

Зверопой 2 / Співай 2 / Sing 2 (Гарт Дженнингс) [2021, мультфильм, драма, комедия, семейный, музыка, BDRip-AVC] [Ukr DUB] («LeDoyen Studio») pb.wtf

Зверопой 2 через торрент pb.wtf

Раздают: 2 [ 199 KB/s ]
Размер: 2.96 GB | Добавлен: 1 мес. 9 д. назад | Торрент скачан:14 раз
Смотреть онлайн Зверопой 2 | Скачать    Ребята, помогите собрать деньги на оплату серверов!!!

09-01-2022 10:50 Зверопой 2 Скачать торрент  

Зверопой 2 / Співай 2 / Sing 2
✦ Год выпуска: 2021
✦ Страна: США, Франция, Япония
✦ Производство: Universal Pictures, Illumination Entertainment, Hammer & Tongs
✦ Жанр: мультфильм, драма, комедия, семейный, музыка
✦ Продолжительность: 01:49:49
✦ Перевод: Украинский (дублированный) «LeDoyen Studio»
✦ Субтитры: Ukr (forced), eng

✦ Режиссер: Гарт Дженнингс

✦ В ролях: Мэттью МакКонахи, Риз Уизерспун, Сет МакФарлейн, Скарлетт Йоханссон, Джон Си Райли, Тэрон Эджертон, Тори Келли, Дженнифер Сондерс

✦ Описание: Тяжело быть продюсером, когда ты коала и у тебя лапки. Еще сложнее, когда твоя верная помощница древнее печатной машинки. И совсем весело, когда твоя труппа - это танцующий без остановки пухляш, колючая девочка-панк, застенчивая школьница, верзила-гангстер и многодетная мама, чьи дети - поросята в прямом смысле слова. Рецепт успеха прост - рвануть в мировую столицу развлечений, завербовать легендарного рок-музыканта и взорвать сцену новым шоу.



Качество: BDRip-AVC
Формат: MKV
Видео кодек: AVC
Аудио кодек: АС3
Видео: AVC, 1024x554, 2 960 Kbps, 23.976 fps
Аудио 1: 48 kHz, AC3, 6 ch, ~448 kbps - Ukr DUB «LeDoyen Studio»
Аудио 2: 48 kHz, AC3, 6 ch, ~448 kbps - Eng
скриншот  скриншот  скриншот  
General
Unique ID : 163220614185166040663595391412233533141 (0x7ACB25974F370B28D248453E977B76D5)
Complete name : Sing 2 (2021) BDRip-AVC [eneyida.tv].mkv
Format : Matroska
Format version : Version 4
File size : 2.96 GiB
Duration : 1 h 49 min
Overall bit rate : 3 857 kb/s
Movie name : Співай 2 / Sing 2 (2021)
Encoded date : UTC 2022-04-11 05:21:09
Writing application : mkvmerge v66.0.0 ('Josie') 64-bit
Writing library : libebml v1.4.2 + libmatroska v1.6.4
Cover : Yes
Attachments : cover.jpg

Video
ID : 1
Format : AVC
Format/Info : Advanced Video Codec
Format profile : High@L4.1
Format settings : CABAC / 12 Ref Frames
Format settings, CABAC : Yes
Format settings, Reference frames : 12 frames
Codec ID : V_MPEG4/ISO/AVC
Duration : 1 h 49 min
Bit rate : 2 960 kb/s
Width : 1 024 pixels
Height : 554 pixels
Display aspect ratio : 1.85:1
Frame rate mode : Constant
Frame rate : 23.976 (24000/1001) FPS
Color space : YUV
Chroma subsampling : 4:2:0
Bit depth : 8 bits
Scan type : Progressive
Bits/(Pixel*Frame) : 0.218
Stream size : 2.27 GiB (77%)
Title : Sing 2 (2021)
Writing library : x264 core 163
Encoding settings : cabac=1 / ref=12 / deblock=1:-2:-2 / analyse=0x3:0x133 / me=umh / subme=11 / psy=1 / psy_rd=0.95:0.00 / mixed_ref=1 / me_range=32 / chroma_me=0 / trellis=2 / 8x8dct=1 / cqm=0 / deadzone=21,11 / fast_pskip=0 / chroma_qp_offset=-2 / threads=19 / lookahead_threads=4 / sliced_threads=0 / nr=0 / decimate=1 / interlaced=0 / bluray_compat=0 / constrained_intra=0 / bframes=10 / b_pyramid=2 / b_adapt=2 / b_bias=0 / direct=0 / weightb=1 / open_gop=0 / weightp=2 / keyint=240 / keyint_min=23 / scenecut=40 / intra_refresh=0 / rc_lookahead=100 / rc=2pass / mbtree=1 / bitrate=2960 / ratetol=1.0 / qcomp=0.70 / qpmin=0 / qpmax=69 / qpstep=5 / cplxblur=20.0 / qblur=0.5 / vbv_maxrate=50000 / vbv_bufsize=62500 / nal_hrd=none / filler=0 / ip_ratio=1.35 / aq=2:0.80
Language : English
Default : Yes
Forced : No

Audio #1
ID : 2
Format : AC-3
Format/Info : Audio Coding 3
Commercial name : Dolby Digital
Codec ID : A_AC3
Duration : 1 h 49 min
Bit rate mode : Constant
Bit rate : 448 kb/s
Channel(s) : 6 channels
Channel layout : L R C LFE Ls Rs
Sampling rate : 48.0 kHz
Frame rate : 31.250 FPS (1536 SPF)
Compression mode : Lossy
Stream size : 352 MiB (12%)
Title : DUB [LeDoyen], AC3 5.1, 448 kb/s
Language : Ukrainian
Service kind : Complete Main
Default : Yes
Forced : Yes

Audio #2
ID : 3
Format : AC-3
Format/Info : Audio Coding 3
Commercial name : Dolby Digital
Codec ID : A_AC3
Duration : 1 h 49 min
Bit rate mode : Constant
Bit rate : 448 kb/s
Channel(s) : 6 channels
Channel layout : L R C LFE Ls Rs
Sampling rate : 48.0 kHz
Frame rate : 31.250 FPS (1536 SPF)
Compression mode : Lossy
Stream size : 352 MiB (12%)
Title : Original, AC3 5.1, 448 kb/s
Language : English
Service kind : Complete Main
Default : No
Forced : No

Text #1
ID : 4
Format : UTF-8
Codec ID : S_TEXT/UTF8
Codec ID/Info : UTF-8 Plain Text
Duration : 1 h 38 min
Bit rate : 1 b/s
Count of elements : 21
Stream size : 951 Bytes (0%)
Title : Forced
Language : Ukrainian
Default : Yes
Forced : Yes

Text #2
ID : 5
Format : UTF-8
Codec ID : S_TEXT/UTF8
Codec ID/Info : UTF-8 Plain Text
Duration : 1 h 43 min
Bit rate : 81 b/s
Count of elements : 2071
Stream size : 62.1 KiB (0%)
Title : Full
Language : English
Default : No
Forced : No

Text #3
ID : 6
Format : UTF-8
Codec ID : S_TEXT/UTF8
Codec ID/Info : UTF-8 Plain Text
Duration : 1 h 49 min
Bit rate : 90 b/s
Count of elements : 2403
Stream size : 72.5 KiB (0%)
Title : SDH
Language : English
Default : No
Forced : No

Menu
00:00:00.000 : en:Chapter 01
00:08:24.295 : en:Chapter 02
00:13:17.922 : en:Chapter 03
00:19:34.298 : en:Chapter 04
00:26:43.936 : en:Chapter 05
00:30:54.978 : en:Chapter 06
00:36:01.326 : en:Chapter 07
00:44:23.411 : en:Chapter 08
00:49:44.273 : en:Chapter 09
00:53:43.679 : en:Chapter 10
01:00:07.771 : en:Chapter 11
01:07:04.979 : en:Chapter 12
01:12:47.738 : en:Chapter 13
01:20:12.391 : en:Chapter 14
01:24:46.707 : en:Chapter 15
01:27:38.295 : en:Chapter 16
01:30:30.884 : en:Chapter 17
01:33:26.726 : en:Chapter 18
01:38:09.592 : en:Chapter 19
01:42:08.289 : en:Chapter 20
pb.wtf



Скачать Зверопой 2 через торрент https://i117.fastpic.org/big/2022/0411/50/e2a7994eee6fcefef919ae649ff2d250.jpg Скачать, смотреть онлайн Зверопой 2 бесплантно в хорошем качестве Описание: Тяжело быть продюсером, когда ты коала и у тебя лапки. Еще сложнее, когда твоя верная помощница древнее печатной машинки. И ... 10 10 4
Торрент: Зарегистрирован [2022-04-11 10:29] · скачан: 14 раз
Статус: √ проверено
Размер: 2.96 GB
Как cкачать? Как скачать Зверопой 2 через торрент | UTorrent



Последний раз редактировалось: killermax2013 (2022-04-11 10:31), всего редактировалось 3 раз(а)

28-11-2019 20:33  

Отключить всю рекламу на сайте

09-01-2022 16:58 Зверопой 2 Скачать торрент  

Спасибоpb.wtf



    Дорогой пользователь! Огромная просьба, поблагодарите релизера, оцените раздачу и оставьте свои комментарий, если Вы скачали Зверопой 2 через торрент бесплатно!
    Комментировать посты могут только пользователи прошедшие не сложную регистрацию
    Показать сообщения:    

    Зверопой 2 через торрент
    Скачать бесплатно Зверопой 2
    Зверопой 2 скачать торрент
    Зверопой 2 смотреть онлайн
    Cкачать фильм Зверопой 2 бесплатно
    Зверопой 2 скачать торрент в хорошем качестве
    Зверопой 2 смотреть онлайн бесплатно в хорошем качестве


    Вы не можете начинать темы
    Вы не можете отвечать на сообщения
    Вы не можете редактировать свои сообщения
    Вы не можете удалять свои сообщения
    Вы не можете голосовать в опросах
    Вы не можете прикреплять файлы к сообщениям
    Вы можете скачивать файлы