Всегда рабочее зеркало без VPN и Proxy просто перед .vidak.icu напиши любое слово или цифру, Пример http://9hdf.vidak.icu

MVO

2 сезон

1 сезон

1

1 сезон

iTunes

2 сезон

13

1 сезон

Распродажа

pack

Рекомендуем

Пиратка

30

ВАЖНО

RePack

MK11

RePack

jed

RePack

fifa19

RePack

RDR2

RePack

NEED FOR SPEED™ PAYBACK

Кинопоиск HD

6 сезон

 Острые козырьки 6 сезон

Все сериалы

все сериалы на PB.wtf

RePack

FAR CRY 5

Anonymous, нам критически не хватает 5601 руб. на оплату серверов и переферии за Апрель, помоги нам пожалуйста, вся надежда только на тебя. В благодарность мы отключим тебе всю рекламу на сайте!

×
  
Magnet ссылка

Семейка Аддамс: Горящий тур / The Addams Family 2 (Грег Тирнан, Конрад Вернон, Лаура Бруссо) [2021, Мультфильм, ужасы, фэнтези, комедия, приключения, семейный, HDRip-AVC] DUB [iTunes] pb.wtf

Семейка Аддамс: Горящий тур через торрент pb.wtf

Раздают: 1 [ 409 KB/s ]
Размер: 1.45 GB | Добавлен: 4 мес. 16 д. назад | Торрент скачан:85 раз
Смотреть онлайн Семейка Аддамс: Горящий тур | Скачать    Ребята, помогите собрать деньги на оплату серверов!!!

09-01-2022 12:45 Семейка Аддамс: Горящий тур Скачать торрент  

Семейка Аддамс: Горящий тур
The Addams Family 2

Год выпуска: 2021
Страна: США, Канада
Студия: BermanBraun, Bron Creative, Bron Studios, Cinesite Animation, Creative Wealth Media Finance, Glickmania, Metro-Goldwyn-Mayer (MGM)
Жанр: Мультфильм, ужасы, фэнтези, комедия, приключения, семейный
Продолжительность: 01:32:43
Перевод: Дублированный | iTunes
Субтитры: Русские (Forced, full), английские

Режиссер: Грег Тирнан, Конрад Вернон, Лаура Бруссо

rating

В ролях: Оскар Айзек, Шарлиз Терон, Хлоя Грейс Морец, Джейвон Уолтон, Ник Кролл, Снуп Догг, Бетт Мидлер, Конрад Вернон, Билл Хейдер, Уоллес Шоун

Описание: Мортиша и Гомес в ужасе от того, как быстро растут их дети, которые все чаще пропускают семейные обеды, предпочитая этому куда более леденящие кровь занятия. Поэтому родители решают взять Венсди, Пагсли и дядю Фестера в не слишком счастливую совместную поездку на своем призрачном кемпере. Что может пойти не так в этом странном путешествии семейки Аддамс?

Качество: HDRip-AVC
Формат: MKV

Видео: MPEG-4 AVC, 1024x554 at 23.976 fps, x264@L4.1, ~1857 kbps
Аудио: 48 kHz, AC3 Dolby Digital, 3/2 (L, C, R, l, r) + LFE ch, ~384 Kbps

x264 [info]: frame I:1115 Avg QP:16.30 size: 81303
x264 [info]: frame P:32836 Avg QP:19.23 size: 19662
x264 [info]: frame B:99481 Avg QP:21.50 size: 5585

General
Unique ID : 312892273262872151321421669319618228681 (0xEB64DC1EC3D3E8CCD6F6B9E6654A71C9)
Complete name : I:The.Addams.Family.2.2021.DUB.HDRip.x264.mkv
Format : Matroska
Format version : Version 4
File size : 1.45 GiB
Duration : 1 h 32 min
Overall bit rate : 2 243 kb/s
Encoded date : UTC 2022-01-09 12:33:22
Writing application : mkvmerge v64.0.0 ('Willows') 64-bit
Writing library : libebml v1.4.2 + libmatroska v1.6.4
Cover : Yes
Attachments : cover.jpg / cover 2.jpg

Video
ID : 1
Format : AVC
Format/Info : Advanced Video Codec
Format profile : High@L4.1
Format settings : CABAC / 12 Ref Frames
Format settings, CABAC : Yes
Format settings, Reference : 12 frames
Codec ID : V_MPEG4/ISO/AVC
Duration : 1 h 32 min
Bit rate : 1 857 kb/s
Width : 1 024 pixels
Height : 554 pixels
Display aspect ratio : 1.85:1
Frame rate mode : Constant
Frame rate : 23.976 (24000/1001) FPS
Color space : YUV
Chroma subsampling : 4:2:0
Bit depth : 8 bits
Scan type : Progressive
Bits/(Pixel*Frame) : 0.137
Stream size : 1.20 GiB (83%)
Title : -=DoMiNo=-
Writing library : x264 core 164 r3081 19856cc
Encoding settings : cabac=1 / ref=12 / deblock=1:-2:-2 / analyse=0x3:0x133 / me=umh / subme=10 / psy=1 / psy_rd=1.05:0.05 / mixed_ref=1 / me_range=32 / chroma_me=1 / trellis=2 / 8x8dct=1 / cqm=0 / deadzone=21,11 / fast_pskip=0 / chroma_qp_offset=-3 / threads=17 / lookahead_threads=4 / sliced_threads=0 / nr=0 / decimate=0 / interlaced=0 / bluray_compat=0 / constrained_intra=0 / bframes=10 / b_pyramid=2 / b_adapt=2 / b_bias=0 / direct=3 / weightb=1 / open_gop=0 / weightp=2 / keyint=250 / keyint_min=23 / scenecut=40 / intra_refresh=0 / rc_lookahead=60 / rc=2pass / mbtree=0 / bitrate=1857 / ratetol=1.0 / qcomp=0.70 / qpmin=0 / qpmax=69 / qpstep=4 / cplxblur=20.0 / qblur=0.5 / vbv_maxrate=50000 / vbv_bufsize=62500 / nal_hrd=none / filler=0 / ip_ratio=1.40 / pb_ratio=1.30 / aq=1:0.80
Language : English
Default : Yes
Forced : No

Audio
ID : 2
Format : AC-3
Format/Info : Audio Coding 3
Commercial name : Dolby Digital
Codec ID : A_AC3
Duration : 1 h 32 min
Bit rate mode : Constant
Bit rate : 384 kb/s
Channel(s) : 6 channels
Channel layout : L R C LFE Ls Rs
Sampling rate : 48.0 kHz
Frame rate : 31.250 FPS (1536 SPF)
Compression mode : Lossy
Stream size : 255 MiB (17%)
Title : DUB_iTunes
Language : Russian
Service kind : Complete Main
Default : Yes
Forced : Yes

Text #1
ID : 3
Format : UTF-8
Codec ID : S_TEXT/UTF8
Codec ID/Info : UTF-8 Plain Text
Duration : 1 h 25 min
Bit rate : 2 b/s
Count of elements : 45
Stream size : 1.52 KiB (0%)
Title : Forced
Language : Russian
Default : Yes
Forced : No

Text #2
ID : 4
Format : UTF-8
Codec ID : S_TEXT/UTF8
Codec ID/Info : UTF-8 Plain Text
Duration : 1 h 25 min
Bit rate : 96 b/s
Count of elements : 1211
Stream size : 60.3 KiB (0%)
Title : Full
Language : Russian
Default : No
Forced : No

Text #3
ID : 5
Format : UTF-8
Codec ID : S_TEXT/UTF8
Codec ID/Info : UTF-8 Plain Text
Duration : 1 h 27 min
Bit rate : 56 b/s
Count of elements : 1437
Stream size : 36.1 KiB (0%)
Title : Full
Language : English
Default : No
Forced : No

Text #4
ID : 6
Format : UTF-8
Codec ID : S_TEXT/UTF8
Codec ID/Info : UTF-8 Plain Text
Duration : 1 h 27 min
Bit rate : 80 b/s
Count of elements : 1870
Stream size : 51.8 KiB (0%)
Title : SDH
Language : English
Default : No
Forced : No

Menu
00:00:00.000 : en:Chapter 01
00:04:18.925 : en:Chapter 02
00:10:36.886 : en:Chapter 03
00:16:18.644 : en:Chapter 04
00:21:53.854 : en:Chapter 05
00:23:46.008 : en:Chapter 06
00:28:01.346 : en:Chapter 07
00:31:57.833 : en:Chapter 08
00:38:49.452 : en:Chapter 09
00:44:27.999 : en:Chapter 10
00:48:50.427 : en:Chapter 11
00:53:08.852 : en:Chapter 12
00:56:38.353 : en:Chapter 13
01:01:12.419 : en:Chapter 14
01:04:57.477 : en:Chapter 15
01:11:12.935 : en:Chapter 16
01:14:05.691 : en:Chapter 17
01:19:42.027 : en:Chapter 18
01:22:52.009 : en:Chapter 19
01:26:15.379 : en:Chapter 20

pb.wtf



Скачать Семейка Аддамс: Горящий тур через торрент https://i6.imageban.ru/out/2022/01/11/45ba6332ece22ca60b33f5c3bb6e6603.png Скачать, смотреть онлайн Семейка Аддамс: Горящий тур бесплантно в хорошем качестве Описание: Мортиша и Гомес в ужасе от того, как быстро растут их дети, которые все чаще пропускают семейные обеды, предпочитая этому куда ... 10 10 3
Торрент: Зарегистрирован [2022-01-09 12:45] · скачан: 85 раз
Статус: √ проверено
Размер: 1.45 GB
Как cкачать? Как скачать Семейка Аддамс: Горящий тур через торрент | UTorrent

% Раздел Тема Автор DL S | L
Иностранные мультфильмы [ 748 MB ] Семейка Аддамс: Горящий тур / The Addams Family 2 [2021 Мультфильм WEB-DLRip] bober100 Скачать
2 | 0
Зарубежные Мультфильмы (BDRip 1080p, 720p, Blu-ray, BD-Remux) [ 21.48 GB ] Семейка Аддамс: Горящий тур / The Addams Family 2 [2021 Мультфильм BD Remux 1080p] bober100 Скачать
1 | 0
Зарубежные Мультфильмы (BDRip 1080p, 720p, Blu-ray, BD-Remux) [ 3.43 GB ] Семейка Аддамс: Горящий тур / The Addams Family 2 [2021 Мультфильм BDRip 720p] bober100 Скачать
2 | 0
Зарубежные Мультфильмы (BDRip 1080p, 720p, Blu-ray, BD-Remux) [ 8.7 GB ] Семейка Аддамс: Горящий тур / The Addams Family 2 [2021 Мультфильм BDRip 1080p] bober100 Скачать
3 | 0
Иностранные мультфильмы [ 1.8 GB ] Семейка Аддамс: Горящий тур / The Addams Family 2 [2021 Мультфильм BDRip-AVC] DUB [ ] от ExKinoRay Lithuania Скачать
1 | 0
Иностранные мультфильмы [ 1.42 GB ] Семейка Аддамс: Горящий тур / The Addams Family 2 [2021 Мультфильм BDRip] - Twi7ter Скачать
119 | 6
Иностранные мультфильмы [ 1.42 GB ] Семейка Аддамс: Горящий тур / The Addams Family 2 [2021 Мультфильм BDRip] bober100 Скачать
2 | 0

28-11-2019 20:33  

Отключить всю рекламу на сайте

    Дорогой пользователь! Огромная просьба, поблагодарите релизера, оцените раздачу и оставьте свои комментарий, если Вы скачали Семейка Аддамс: Горящий тур через торрент бесплатно!
    Комментировать посты могут только пользователи прошедшие не сложную регистрацию
    Показать сообщения:    

    Семейка Аддамс: Горящий тур через торрент
    Скачать бесплатно Семейка Аддамс: Горящий тур
    Семейка Аддамс: Горящий тур скачать торрент
    Семейка Аддамс: Горящий тур смотреть онлайн
    Cкачать фильм Семейка Аддамс: Горящий тур бесплатно
    Семейка Аддамс: Горящий тур скачать торрент в хорошем качестве
    Семейка Аддамс: Горящий тур смотреть онлайн бесплатно в хорошем качестве


    Вы не можете начинать темы
    Вы не можете отвечать на сообщения
    Вы не можете редактировать свои сообщения
    Вы не можете удалять свои сообщения
    Вы не можете голосовать в опросах
    Вы не можете прикреплять файлы к сообщениям
    Вы можете скачивать файлы