>

7.4

iTunes

7.4

2 сезон

9.4

1 сезон

1

7.4

2 сезон

7.2

iTunes

6.0

MVO

13

6.1

iTunes

8.3

Пиратка

30

ULTIMATE

pack

9.9

Лицензия

ВАЖНО

ИГРА 18+

pack

7.3

RePack

MK11

7.7

RePack

jed

7.8

RePack

fifa19

8.5

RePack

RDR2

RePack

NEED FOR SPEED™ PAYBACK

1 сезон

9 сезон

Бесстыжие 9 сезон

Все сериалы

все сериалы на PB.wtf

RePack

FAR CRY 5

Anonymous, доброй ночи, мы катастрофически не успеваем собрать деньги на оплату серверов, помогите нам пожалуйста 5,10,15р., для нас важна любая помощь . В качестве благодарности мы отключим Вам всю рекламу на сайте (укажите свой ник в строку Ваше имя)!

×
  
Magnet ссылка

Челюсти: Дилогия / Jaws: Dilogy (Стивен Спилберг, Жанно Шварц) [1975-1978, триллер, ужасы, приключения, BDRip - HEVC 1080p 10 bit 60 FPS, DVO] pb.wtf

Челюсти: Дилогия через торрент pb.wtf

Раздают: 2 [ 0 KB/s ]
Размер: 6.72 GB | Добавлен: 8 д. назад | Торрент скачан:11 раз
Смотреть онлайн Челюсти: Дилогия | Скачать    Ребята, помогите собрать деньги на оплату серверов!!!

09-01-2022 20:16 Челюсти: Дилогия Скачать торрент  



«Челюсти» — знаменитая голливудская франшиза созданная Стивеном Спилбергом. Название фильма уже дает о себе знать, и всем понятно что без кровищи не обойдется. Акулы всегда были одни из самых опасных существ на нашей планете, и люди всегда боялись их, ведь по правде говоря этих супер хищники способны убить человека за считанные секунды. И так история этого легендарного фильма начинается с этого момента...
Jaws
«You'll never go in the water again!»

Год выпуска: 1975
Страна: США
Жанр: триллер, ужасы, приключения
Продолжительность: 02:04:00
Перевод: Многоголосый закадровый | НТВ
Субтитры: русские |
Режиссер: Стивен Спилберг
В ролях: Рой Шайдер, Роберт Шоу, Ричард Дрейфусс, Лоррэйн Гари, Мюррэй Хэмилтон, Карл Готтлиб, Джефри Крамер, Сьюзэн Бэклайни, Джонатан Филли, Тед Гроссман
Описание:
Действие картины протекает в течение пяти дней — на острове Э́мити, где расположен небольшой курортный городок. В этом тихом и солнечном месте произошли ужасные трагические события, начало которым было положено ранним утром, когда шеф местной полиции Мартин Броуди и его помощник находят на берегу остатки тела девушки. Она стала первой жертвой огромной белой акулы, которая появилась у берегов Эмити…

С каждым днем число жертв кровожадной акулы продолжает увеличиваться. Сможет ли отважный охотник на акул, ветеран Второй мировой войны, рыбак Квинт на своём судне выловить и убить акулу-людоеда? В опасную морскую экспедицию вместе с ним отправляются Мартин Броуди и прибывший на остров эксперт из национального института океанографии Мэтт Хупер.
Мировая премьера: 20 июня 1975

Качество: BDRip 1080p Rip by DD2D3
Формат: MKV
Видео: V_MPEGH/ISO/HEVC; 1920x812 (2.35:1); 3737 Kbps; 59,940 fps; 0,040 bpp
Аудио: русский; AC3; 192 Kbps; CBR; 2 ch ||
Навигация по главам: нет



Общее
Уникальный идентификатор : 192185492405348744473353200245388915069 (0x9095945825CD9F5E825E328EA5C0B17D)
Полное имя : D:\Jaws Dilogy (1975-1978) BDRip - HEVC 1080p 10 bit 60 FPS\Jaws (1975) BDRip - HEVC 1080p 10 bit 60 FPS.mkv
Формат : Matroska
Версия формата : Version 2
Размер файла : 3,47 Гбайт
Продолжительность : 2 ч. 4 м.
Общий поток : 4 009 Кбит/сек
Название фильма : Rip by from DD2D3
Дата кодирования : UTC 2022-01-09 18:35:55
Программа кодирования : mkvmerge v7.8.0 ('River Man') 32bit built on Apr 3 2015 12:11:22
Библиотека кодирования : libebml v1.3.1 + libmatroska v1.4.2
Attachments : poster

Видео
Идентификатор : 1
Формат : HEVC
Формат/Информация : High Efficiency Video Coding
Профиль формата : Main 10@L4.1@Main
Идентификатор кодека : V_MPEGH/ISO/HEVC
Продолжительность : 2 ч. 4 м.
Битрейт : 3 737 Кбит/сек
Ширина : 1 920 пикселей
Высота : 812 пикселей
Соотношение сторон : 2,35:1
Режим частоты кадров : Постоянный
Частота кадров : 59,940 (60000/1001) кадров/сек
Цветовое пространство : YUV
Субдискретизация насыщенности : 4:2:0
Битовая глубина : 10 бит
Бит/(Пиксели*Кадры) : 0.040
Размер потока : 3,24 Гбайт (93%)
Библиотека кодирования : x265 3.5+10-82786fccc:[Windows][GCC 11.1.0][64 bit] 10bit
Настройки программы : cpuid=1111039 / frame-threads=2 / numa-pools=4 / wpp / no-pmode / no-pme / no-psnr / no-ssim / log-level=2 / input-csp=1 / input-res=1920x812 / interlace=0 / total-frames=446003 / level-idc=41 / high-tier=1 / uhd-bd=0 / ref=3 / no-allow-non-conformance / no-repeat-headers / annexb / no-aud / no-eob / no-eos / no-hrd / info / hash=0 / no-temporal-layers / open-gop / min-keyint=25 / keyint=250 / gop-lookahead=0 / bframes=4 / b-adapt=2 / b-pyramid / bframe-bias=0 / rc-lookahead=20 / lookahead-slices=5 / scenecut=40 / hist-scenecut=0 / radl=0 / no-splice / no-intra-refresh / ctu=64 / min-cu-size=8 / no-rect / no-amp / max-tu-size=32 / tu-inter-depth=1 / tu-intra-depth=1 / limit-tu=0 / rdoq-level=0 / dynamic-rd=0.00 / no-ssim-rd / signhide / no-tskip / nr-intra=0 / nr-inter=0 / no-constrained-intra / strong-intra-smoothing / max-merge=3 / limit-refs=1 / no-limit-modes / me=2 / subme=5 / merange=57 / temporal-mvp / no-frame-dup / no-hme / weightp / no-weightb / no-analyze-src-pics / deblock=0:0 / no-sao / no-sao-non-deblock / rd=3 / selective-sao=0 / early-skip / no-rskip / no-fast-intra / no-tskip-fast / no-cu-lossless / b-intra / no-splitrd-skip / rdpenalty=0 / psy-rd=4.00 / psy-rdoq=0.00 / no-rd-refine / no-lossless / cbqpoffs=0 / crqpoffs=0 / rc=abr / bitrate=3800 / qcomp=0.60 / qpstep=1 / stats-write=0 / stats-read=2 / cplxblur=20.0 / qblur=0.5 / ipratio=1.10 / pbratio=1.00 / aq-mode=0 / aq-strength=0.00 / no-cutree / zone-count=0 / no-strict-cbr / qg-size=64 / rc-grain / qpmax=69 / qpmin=0 / const-vbv / sar=1 / overscan=0 / videoformat=5 / range=0 / colorprim=2 / transfer=2 / colormatrix=2 / chromaloc=0 / display-window=0 / cll=0,0 / min-luma=0 / max-luma=1023 / log2-max-poc-lsb=8 / vui-timing-info / vui-hrd-info / slices=1 / no-opt-qp-pps / no-opt-ref-list-length-pps / no-multi-pass-opt-rps / scenecut-bias=0.05 / hist-threshold=0.03 / no-opt-cu-delta-qp / no-aq-motion / no-hdr10 / no-hdr10-opt / no-dhdr10-opt / no-idr-recovery-sei / analysis-reuse-level=0 / analysis-save-reuse-level=0 / analysis-load-reuse-level=0 / scale-factor=0 / refine-intra=0 / refine-inter=0 / refine-mv=1 / refine-ctu-distortion=0 / no-limit-sao / ctu-info=0 / no-lowpass-dct / refine-analysis-type=0 / copy-pic=1 / max-ausize-factor=1.0 / no-dynamic-refine / no-single-sei / no-hevc-aq / no-svt / no-field / qp-adaptation-range=1.00 / scenecut-aware-qp=0conformance-window-offsets / right=0 / bottom=0 / decoder-max-rate=0 / no-vbv-live-multi-pass
Default : Да
Forced : Нет

Аудио
Идентификатор : 2
Формат : AC-3
Формат/Информация : Audio Coding 3
Коммерческое название : Dolby Digital
Идентификатор кодека : A_AC3
Продолжительность : 2 ч. 4 м.
Вид битрейта : Постоянный
Битрейт : 192 Кбит/сек
Каналы : 2 канала
Channel layout : L R
Частота : 48,0 КГц
Частота кадров : 31,250 кадров/сек (1536 SPF)
Метод сжатия : С потерями
Размер потока : 170 Мбайт (5%)
Заголовок : НТВ
Язык : Russian
Service kind : Complete Main
Default : Да
Forced : Нет

Текст
Идентификатор : 3
Формат : PGS
Режим смешивания : zlib
Идентификатор кодека : S_HDMV/PGS
Идентификатор кодека/Информация : Picture based subtitle format used on BDs/HD-DVDs
Язык : Russian
Default : Да
Forced : Нет

скриншот  скриншот  скриншот  


Jaws 2
«One good bite deserves another!»

Год выпуска: 1978
Страна: США
Жанр: триллер, ужасы, приключения
Продолжительность: 01:56:15
Перевод: Многоголосый закадровый | НТВ
Субтитры: русские |
Режиссер: Жанно Шварц
В ролях: Рой Шайдер, Лоррэйн Гари, Мюррэй Хэмилтон, Джозеф Масколо, Джефри Крамер, Коллин Уилкокс Пэкстон, Энн Дьюзенберри, Марк Грюнер, Бэрри Коу, Сьюзэн Френч
Описание:
Акула-убийца, несколько лет назад терроризировавшая побережье курортного городка Эмити, вернулась! Гигантский хищник снова начал охоту. Рискуя жизнью, шеф полиции морского парка Мартин Броди вступает в борьбу с чудовищем, чей голод теперь во много раз сильнее!
Мировая премьера: 16 июня 1978

Качество: BDRip 1080p Rip by DD2D3
Формат: MKV
Видео: V_MPEGH/ISO/HEVC; 1920x816 (2.35:1); 3727 Kbps; 59,940 fps; 0,040 bpp
Аудио: русский; AC3; 192 Kbps; CBR; 2 ch ||
Навигация по главам: нет



Общее
Уникальный идентификатор : 184305433687502001283230381911331648047 (0x8AA7EF74180F53DFA0F2528D2BC5322F)
Полное имя : D:\Jaws Dilogy (1975-1978) BDRip - HEVC 1080p 10 bit 60 FPS\Jaws 2 (1978) BDRip - HEVC 1080p 10 bit 60 FPS.mkv
Формат : Matroska
Версия формата : Version 2
Размер файла : 3,25 Гбайт
Продолжительность : 1 ч. 56 м.
Общий поток : 3 999 Кбит/сек
Название фильма : Rip by from DD2D3
Дата кодирования : UTC 2022-01-09 18:57:40
Программа кодирования : mkvmerge v7.8.0 ('River Man') 32bit built on Apr 3 2015 12:11:22
Библиотека кодирования : libebml v1.3.1 + libmatroska v1.4.2
Attachments : poster

Видео
Идентификатор : 1
Формат : HEVC
Формат/Информация : High Efficiency Video Coding
Профиль формата : Main 10@L4.1@Main
Идентификатор кодека : V_MPEGH/ISO/HEVC
Продолжительность : 1 ч. 56 м.
Битрейт : 3 728 Кбит/сек
Ширина : 1 920 пикселей
Высота : 816 пикселей
Соотношение сторон : 2,35:1
Режим частоты кадров : Постоянный
Частота кадров : 59,940 (60000/1001) кадров/сек
Цветовое пространство : YUV
Субдискретизация насыщенности : 4:2:0
Битовая глубина : 10 бит
Бит/(Пиксели*Кадры) : 0.040
Размер потока : 3,03 Гбайт (93%)
Библиотека кодирования : x265 3.5+10-82786fccc:[Windows][GCC 11.1.0][64 bit] 10bit
Настройки программы : cpuid=1111039 / frame-threads=2 / numa-pools=4 / wpp / no-pmode / no-pme / no-psnr / no-ssim / log-level=2 / input-csp=1 / input-res=1920x816 / interlace=0 / total-frames=418106 / level-idc=41 / high-tier=1 / uhd-bd=0 / ref=3 / no-allow-non-conformance / no-repeat-headers / annexb / no-aud / no-eob / no-eos / no-hrd / info / hash=0 / no-temporal-layers / open-gop / min-keyint=25 / keyint=250 / gop-lookahead=0 / bframes=4 / b-adapt=2 / b-pyramid / bframe-bias=0 / rc-lookahead=20 / lookahead-slices=5 / scenecut=40 / hist-scenecut=0 / radl=0 / no-splice / no-intra-refresh / ctu=64 / min-cu-size=8 / no-rect / no-amp / max-tu-size=32 / tu-inter-depth=1 / tu-intra-depth=1 / limit-tu=0 / rdoq-level=0 / dynamic-rd=0.00 / no-ssim-rd / signhide / no-tskip / nr-intra=0 / nr-inter=0 / no-constrained-intra / strong-intra-smoothing / max-merge=3 / limit-refs=1 / no-limit-modes / me=2 / subme=5 / merange=57 / temporal-mvp / no-frame-dup / no-hme / weightp / no-weightb / no-analyze-src-pics / deblock=0:0 / no-sao / no-sao-non-deblock / rd=3 / selective-sao=0 / early-skip / no-rskip / no-fast-intra / no-tskip-fast / no-cu-lossless / b-intra / no-splitrd-skip / rdpenalty=0 / psy-rd=4.00 / psy-rdoq=0.00 / no-rd-refine / no-lossless / cbqpoffs=0 / crqpoffs=0 / rc=abr / bitrate=3800 / qcomp=0.60 / qpstep=1 / stats-write=0 / stats-read=2 / cplxblur=20.0 / qblur=0.5 / ipratio=1.10 / pbratio=1.00 / aq-mode=0 / aq-strength=0.00 / no-cutree / zone-count=0 / no-strict-cbr / qg-size=64 / rc-grain / qpmax=69 / qpmin=0 / const-vbv / sar=1 / overscan=0 / videoformat=5 / range=0 / colorprim=2 / transfer=2 / colormatrix=2 / chromaloc=0 / display-window=0 / cll=0,0 / min-luma=0 / max-luma=1023 / log2-max-poc-lsb=8 / vui-timing-info / vui-hrd-info / slices=1 / no-opt-qp-pps / no-opt-ref-list-length-pps / no-multi-pass-opt-rps / scenecut-bias=0.05 / hist-threshold=0.03 / no-opt-cu-delta-qp / no-aq-motion / no-hdr10 / no-hdr10-opt / no-dhdr10-opt / no-idr-recovery-sei / analysis-reuse-level=0 / analysis-save-reuse-level=0 / analysis-load-reuse-level=0 / scale-factor=0 / refine-intra=0 / refine-inter=0 / refine-mv=1 / refine-ctu-distortion=0 / no-limit-sao / ctu-info=0 / no-lowpass-dct / refine-analysis-type=0 / copy-pic=1 / max-ausize-factor=1.0 / no-dynamic-refine / no-single-sei / no-hevc-aq / no-svt / no-field / qp-adaptation-range=1.00 / scenecut-aware-qp=0conformance-window-offsets / right=0 / bottom=0 / decoder-max-rate=0 / no-vbv-live-multi-pass
Default : Да
Forced : Нет

Аудио
Идентификатор : 2
Формат : AC-3
Формат/Информация : Audio Coding 3
Коммерческое название : Dolby Digital
Идентификатор кодека : A_AC3
Продолжительность : 1 ч. 56 м.
Вид битрейта : Постоянный
Битрейт : 192 Кбит/сек
Каналы : 2 канала
Channel layout : L R
Частота : 48,0 КГц
Частота кадров : 31,250 кадров/сек (1536 SPF)
Метод сжатия : С потерями
Размер потока : 160 Мбайт (5%)
Заголовок : DVO НТВ (Александр Соловьёв и Людмила Гнилова)
Язык : Russian
Service kind : Complete Main
Default : Нет
Forced : Нет

Текст
Идентификатор : 3
Формат : UTF-8
Идентификатор кодека : S_TEXT/UTF8
Идентификатор кодека/Информация : UTF-8 Plain Text
Язык : Russian
Default : Нет
Forced : Нет

скриншот  скриншот  скриншот  

© Оформление by DD2D3 pb.wtf



Скачать Челюсти: Дилогия через торрент http://images.vfl.ru/ii/1641756332/2a5bb5f2/37455678.jpg Скачать, смотреть онлайн Челюсти: Дилогия бесплантно в хорошем качестве Описание: Действие картины протекает в течение пяти дней — на острове Э́мити, где расположен небольшой курортный городок. В этом тихом и ... 10 10 4
Торрент: Зарегистрирован [2022-01-09 20:16] · скачан: 11 раз
Статус: √ проверено
Размер: 6.72 GB
Как cкачать? Как скачать Челюсти: Дилогия через торрент | UTorrent

28-11-2019 20:33  

Отключить всю рекламу на сайте

    Дорогой пользователь! Огромная просьба, поблагодарите релизера, оцените раздачу и оставьте свои комментарий, если Вы скачали Челюсти: Дилогия через торрент бесплатно!
    Комментировать посты могут только пользователи прошедшие не сложную регистрацию
    Показать сообщения:    

    Челюсти: Дилогия через торрент
    Скачать бесплатно Челюсти: Дилогия
    Челюсти: Дилогия скачать торрент
    Челюсти: Дилогия смотреть онлайн
    Cкачать фильм Челюсти: Дилогия бесплатно
    Челюсти: Дилогия скачать торрент в хорошем качестве
    Челюсти: Дилогия смотреть онлайн бесплатно в хорошем качестве


    Вы не можете начинать темы
    Вы не можете отвечать на сообщения
    Вы не можете редактировать свои сообщения
    Вы не можете удалять свои сообщения
    Вы не можете голосовать в опросах
    Вы не можете прикреплять файлы к сообщениям
    Вы можете скачивать файлы