Доктор Стрэндж

Лицензия

Добыча

Дубляж

Уэнсдэй

1 сезон

Тор

Дубляж

В эфире

Дубляж

Там, где раки поют

MVO

Властелин колец

1 сезон

Deluxe

pack

Рекомендуем

30

Пиратка

ВАЖНО

ВАЖНО

Ghostwire

Пиратка

jed

RePack

nioh2

RePack

RDR2

RePack

NEED FOR SPEED™ PAYBACK

RePack

скачать торрент

Кинопоиск HD

Острые козырьки 6 сезон

6 сезон

FAR CRY 6

RePack

скачать торрент

Лицензия

скачать торрент

MVO

1

1 сезон

скачать торрент

1 сезон

скачать торрент

Лицензия

  

Тайна Сен-Тропе / Mystère à Saint-Tropez (Николя Бенаму) [2021, Комедия, криминал, детектив, BD Remux 1080p] Дубляж [iTunes]

Тайна Сен-Тропе через торрент pb.wtf

Размер: 25.06 GB | Добавлен: 10 мес. назад | Торрент скачан:6 раз
Смотреть онлайн | Скачать   

10-01-2022 03:20 Тайна Сен-Тропе Скачать торрент  

Тайна Сен-Тропе | Mystère à Saint-Tropez
Год выпуска: 2021
Страна: Франция, Бельгия
Студия: Canal+ [fr], Ciné, Curiosa Films, France 2 Cinéma, France Télévision, Investisseurs Tax Shelter, Le Tax Shelter du Gouvernement Fédéral de Belgique, Ouille Productions, Région de Bruxelles-Capitale, Studio Canal, uFund, uMedia Family
Жанр: Комедия, криминал, детектив
Продолжительность: 01:29:57
Перевод: Дублированный | iTunes
Субтитры: отсутствуют

Режиссер: Николя Бенаму

rating

В ролях: Кристиан Клавье, Бенуа Пульворд, Тьерри Лермитт, Жером Коммандёр, Росси де Пальма, Вирджини Хок, Жерар Депардье, Венсан Дезанья, Николя Бриансон, Жиль Альма

Описание: Убийство — это не повод для смеха. Обычно. Но вот попробуйте сдержать улыбку, когда преступление происходит среди харизматичных богачей на курорте Сен-Тропе, а расследование ведет весьма эксцентричный и не самый смышленый сыщик. Мотив есть у каждого, а вот с дедукцией — явно дефицит! Чтобы распутать это дело, горе-детективу придется притвориться дворецким и затеряться между пафосными знаменитостями и знойными женщинами в этом Провансе гламура и роскоши. Что ж, такой отпуск точно будет незабываемым.

Качество: BD Remux 1080p
Формат: MKV

Видео: MPEG-4 AVC, 1920x1080, 36.7 Mbit/s, 24.000 fps
Аудио #01: 48 kHz, AC3, 5.1, 384 Kbps | iTunes | RUS |
Аудио #02: 48 kHz, DTS-HD MA, 5.1, 2767 Kbps | Оригинал | FRE |
скриншот  скриншот  скриншот  скриншот  скриншот  

General
Unique ID : 243254781592926201247885690862786596302 (0xB7012AB34EC9A802470046FE14504DCE)
Complete name : E:VideoDo.You.Do.You.Saint.Tropez.2021.BDREMUX.1080p.seleZen.mkv
Format : Matroska
Format version : Version 4
File size : 25.1 GiB
Duration : 1 h 29 min
Overall bit rate mode : Variable
Overall bit rate : 39.9 Mb/s
Movie name : Mystère à Saint-Tropez AKA Do You Do You Saint-Tropez 2021 from seleZen
Encoded date : UTC 2022-01-09 23:03:02
Writing application : mkvmerge v59.0.0 ('Shining Star') 64-bit
Writing library : libebml v1.4.2 + libmatroska v1.6.4

Video
ID : 1
Format : AVC
Format/Info : Advanced Video Codec
Format profile : [email protected]
Format settings : CABAC / 2 Ref Frames
Format settings, CABAC : Yes
Format settings, Reference : 2 frames
Codec ID : V_MPEG4/ISO/AVC
Duration : 1 h 29 min
Bit rate mode : Variable
Bit rate : 36.7 Mb/s
Width : 1 920 pixels
Height : 1 080 pixels
Display aspect ratio : 16:9
Frame rate mode : Constant
Frame rate : 24.000 FPS
Color space : YUV
Chroma subsampling : 4:2:0
Bit depth : 8 bits
Scan type : Progressive
Bits/(Pixel*Frame) : 0.738
Stream size : 23.1 GiB (92%)
Language : French
Default : Yes
Forced : No

Audio #1
ID : 2
Format : AC-3
Format/Info : Audio Coding 3
Commercial name : Dolby Digital
Codec ID : A_AC3
Duration : 1 h 29 min
Bit rate mode : Constant
Bit rate : 384 kb/s
Channel(s) : 6 channels
Channel layout : L R C LFE Ls Rs
Sampling rate : 48.0 kHz
Frame rate : 31.250 FPS (1536 SPF)
Compression mode : Lossy
Stream size : 247 MiB (1%)
Title : iTunes
Language : Russian
Service kind : Complete Main
Default : Yes
Forced : Yes

Audio #2
ID : 3
Format : DTS XLL
Format/Info : Digital Theater Systems
Commercial name : DTS-HD Master Audio
Codec ID : A_DTS
Duration : 1 h 29 min
Bit rate mode : Variable
Bit rate : 2 767 kb/s
Channel(s) : 6 channels
Channel layout : C L R Ls Rs LFE
Sampling rate : 48.0 kHz
Frame rate : 93.750 FPS (512 SPF)
Bit depth : 24 bits
Compression mode : Lossless
Stream size : 1.74 GiB (7%)
Title : Original
Language : French
Default : Yes
Forced : No

Menu
00:00:00.000 : Глава 01
00:08:12.750 : Глава 02
00:13:09.125 : Глава 03
00:21:29.958 : Глава 04
00:27:52.042 : Глава 05
00:35:04.667 : Глава 06
00:41:56.458 : Глава 07
00:49:45.167 : Глава 08
00:56:45.708 : Глава 09
01:05:04.375 : Глава 10
01:10:01.000 : Глава 11
01:19:47.667 : Глава 12




Скачать Тайна Сен-Тропе через торрент https://c.radikal.ru/c04/2201/07/b7327ae1ba8b.jpg Скачать, смотреть онлайн Тайна Сен-Тропе бесплантно в хорошем качестве Описание: Убийство — это не повод для смеха. Обычно. Но вот попробуйте сдержать улыбку, когда преступление происходит среди харизматичных ... 9.6 10 5
Торрент: Зарегистрирован [2022-01-10 03:20] · скачан: 6 раз
Статус: √ проверено
Размер: 25.06 GB
Как cкачать? Как скачать Тайна Сен-Тропе через торрент | UTorrent

% Раздел Тема Автор DL S | L
Фильмы [HD 720p, 1080p] (Хороший звук DUB, MVO) [ 4.72 GB ] Тайна Сен-Тропе / Mystère à Saint-Tropez | iTunes | 720p bober100 Скачать
1 | 0
Фильмы (WEB-DL 720p, 1080p) [ 3.17 GB ] Тайна Сен-Тропе / Mystère à Saint-Tropez | iTunes | 1080p bober100 Скачать
2 | 0
Фильмы 2021 [DVDrip, WEB-DLRip, HDrip] (DUB, MVO) [ 1.45 GB ] Тайна Сен-Тропе / Mystère à Saint-Tropez | iTunes | BDRip-AVC bober100 Скачать
1 | 0
Фильмы 2021 [DVDrip, WEB-DLRip, HDrip] (DUB, MVO) [ 746 MB ] Тайна Сен-Тропе / Mystère à Saint-Tropez | iTunes | BDRip bober100 Скачать
1 | 0
Фильмы [HD 720p, 1080p] (Хороший звук DUB, MVO) [ 8.81 GB ] Тайна Сен-Тропе / Mystère à Saint-Tropez | iTunes | 1080p bober100 Скачать
1 | 0
Фильмы 2021 [DVDrip, WEB-DLRip, HDrip] (DUB, MVO) [ 1.56 GB ] Тайна Сен-Тропе / Mystère à Saint-Tropez | iTunes | DLRip-AVC Lithuania Скачать
1 | 0
Фильмы 2021 [DVDrip, WEB-DLRip, HDrip] (DUB, MVO) [ 1.42 GB ] Тайна Сен-Тропе / Mystère à Saint-Tropez | iTunes | BDRip bober100 Скачать
1 | 0

28-11-2019 20:33  


Отключить вcю реклaмy на сайте, в т.ч. и в плеере онлайн просмотра!

    Дорогой пользователь! Огромная просьба, поблагодарите релизера, оцените раздачу и оставьте свои комментарий, если Вы скачали Тайна Сен-Тропе через торрент бесплатно!!
    Комментировать посты могут только пользователи прошедшие не сложную регистрацию
    Показать сообщения:    


    Тайна Сен-Тропе через торрент
    Скачать бесплатно Тайна Сен-Тропе
    Тайна Сен-Тропе скачать торрент
    Тайна Сен-Тропе смотреть онлайн
    Cкачать фильм Тайна Сен-Тропе бесплатно
    Тайна Сен-Тропе скачать торрент в хорошем качестве
    Тайна Сен-Тропе смотреть онлайн бесплатно в хорошем качестве
    Вы не можете начинать темы
    Вы не можете отвечать на сообщения
    Вы не можете редактировать свои сообщения
    Вы не можете удалять свои сообщения
    Вы не можете голосовать в опросах
    Вы не можете прикреплять файлы к сообщениям
    Вы можете скачивать файлы
    Тайна Сен-Тропе / Mystère à Saint-Tropez [2021, Комедия, криминал, детектив, BD Remux 1080p] Дубляж [iTunes] смотреть онлайн, скачать торрент picoco.icu