Всегда рабочее зеркало без VPN и Proxy просто перед .vidak.icu напиши любое слово или цифру, Пример http://eehv.vidak.icu

Лицензия

MVO

1 сезон

1

1 сезон

iTunes

1 сезон

13

1 сезон

Deluxe

pack

Рекомендуем

Repack

30

ВАЖНО

RePack

MK11

RePack

jed

RePack

fifa19

RePack

RDR2

RePack

NEED FOR SPEED™ PAYBACK

Кинопоиск HD

6 сезон

 Острые козырьки 6 сезон

Все сериалы

все сериалы на PB.wtf

RePack

FAR CRY 5
  
Magnet ссылка

Пираты Карибского моря: На странных берегах / Pirates of the Caribbean: On Stranger Tides (Роб Маршалл) [2011, Приключения, боевик, фэнтези, комедия, UHD BDRemux 2160p] DUB [Лицензия] pb.wtf

Пираты Карибского моря: На странных берегах через торрент pb.wtf

Раздают: 1 [ 0 KB/s ] Качают: 1 [ 0 KB/s ]
Размер: 49.61 GB | Добавлен: 7 мес. назад | Торрент скачан:49 раз
Смотреть онлайн Пираты Карибского моря: На странных берегах | Скачать    Ребята, помогите собрать деньги на оплату серверов!!!

12-01-2022 09:04 Пираты Карибского моря: На странных берегах Скачать торрент  

Пираты Карибского моря: На странных берегах
Pirates of the Caribbean: On Stranger Tides

Год выпуска: 2011
Страна: США, Великобритания
Студия: Jerry Bruckheimer Films, Walt Disney Pictures
Жанр: Приключения, боевик, фэнтези, комедия
Продолжительность: 02:16:24
Перевод: Дублированный | Лицензия
Субтитры: Русские (Full), английские

Режиссер: Роб Маршалл

rating

В ролях: Джонни Депп, Пенелопа Крус, Джеффри Раш, Иэн МакШейн, Кевин МакНэлли, Сэм Клафлин, Астрид Берже-Фрисби, Стивен Грэм, Кит Ричардс, Ричард Гриффитс

Описание: В новой истории о поисках истины, предательстве, вечной молодости и смертельной опасности капитану Джеку Воробью предстоит столкнуться с женщиной из своего прошлого Анжеликой. До самого конца не будет понятно, связывает ли их настоящая любовь, или же Анжелика искусно притворяется, чтобы вместе с Джеком добраться до таинственного источника вечной молодости.
Она силой принуждает капитана Джека Воробья взойти на корабль «Месть Королевы Анны», которым управляет коварный злодей Черная Борода. Наш герой оказывается в ситуации, когда он не знает, чего ему бояться больше – ужасного злодея или же свою давнюю подругу.

Качество: UHD BDRemux 2160p
Формат: MKV

Видео: 3840x2160 at 23.976 fps, MPEG-H HEVC HDR Video, ~ 46400 kbps avg
Аудио #01: 48 kHz, AC3, 5.1, 640 Kbps | Дублированный | RUS |
Аудио #02: 48 kHz, TrueHD, 7.1, 4337 Kbps | Оригинал | ENG |
Аудио #03: 48 kHz, AC3, 5.1, 640 Kbps | Оригинал | ENG |
скриншот  скриншот  скриншот  скриншот  скриншот  

General
Unique ID : 39461709983224776074665627674287486986 (0x1DB00C842499CC37BCA52892067B380A)
Complete name : E:VideoPirates.of.the.Caribbean.On.Stranger.Tides.2011.BDREMUX.2160p.HDR.seleZen.mkv
Format : Matroska
Format version : Version 4
File size : 49.6 GiB
Duration : 2 h 16 min
Overall bit rate mode : Variable
Overall bit rate : 52.1 Mb/s
Movie name : Pirates of the Caribbean: On Stranger Tides 2011 from seleZen
Encoded date : UTC 2022-01-12 08:22:54
Writing application : mkvmerge v59.0.0 ('Shining Star') 64-bit
Writing library : libebml v1.4.2 + libmatroska v1.6.4

Video
ID : 1
Format : HEVC
Format/Info : High Efficiency Video Coding
Format profile : Main [email protected]@High
HDR format : SMPTE ST 2086, HDR10 compatible
Codec ID : V_MPEGH/ISO/HEVC
Duration : 2 h 16 min
Bit rate : 46.4 Mb/s
Width : 3 840 pixels
Height : 2 160 pixels
Display aspect ratio : 16:9
Frame rate mode : Constant
Frame rate : 23.976 (24000/1001) FPS
Color space : YUV
Chroma subsampling : 4:2:0 (Type 2)
Bit depth : 10 bits
Bits/(Pixel*Frame) : 0.233
Stream size : 44.2 GiB (89%)
Language : English
Default : Yes
Forced : No
Color range : Limited
Color primaries : BT.2020
Transfer characteristics : PQ
Matrix coefficients : BT.2020 non-constant
Mastering display color pri : Display P3
Mastering display luminance : min: 0.0050 cd/m2, max: 4000 cd/m2

Audio #1
ID : 2
Format : AC-3
Format/Info : Audio Coding 3
Commercial name : Dolby Digital
Codec ID : A_AC3
Duration : 2 h 16 min
Bit rate mode : Constant
Bit rate : 640 kb/s
Channel(s) : 6 channels
Channel layout : L R C LFE Ls Rs
Sampling rate : 48.0 kHz
Frame rate : 31.250 FPS (1536 SPF)
Compression mode : Lossy
Stream size : 624 MiB (1%)
Title : Dub
Language : Russian
Service kind : Complete Main
Default : Yes
Forced : Yes

Audio #2
ID : 3
Format : MLP FBA 16-ch
Format/Info : Meridian Lossless Packing FBA with 16-channel presentation
Commercial name : Dolby TrueHD with Dolby Atmos
Codec ID : A_TRUEHD
Duration : 2 h 16 min
Bit rate mode : Variable
Bit rate : 4 337 kb/s
Maximum bit rate : 6 105 kb/s
Channel(s) : 8 channels
Channel layout : L R C LFE Ls Rs Lb Rb
Sampling rate : 48.0 kHz
Frame rate : 1 200.000 FPS (40 SPF)
Compression mode : Lossless
Stream size : 4.13 GiB (8%)
Title : Original
Language : English
Default : No
Forced : No
Number of dynamic objects : 13
Bed channel count : 1 channel
Bed channel configuration : LFE

Audio #3
ID : 4
Format : AC-3
Format/Info : Audio Coding 3
Commercial name : Dolby Digital
Codec ID : A_AC3
Duration : 2 h 16 min
Bit rate mode : Constant
Bit rate : 640 kb/s
Channel(s) : 6 channels
Channel layout : L R C LFE Ls Rs
Sampling rate : 48.0 kHz
Frame rate : 31.250 FPS (1536 SPF)
Compression mode : Lossy
Stream size : 624 MiB (1%)
Language : English
Service kind : Complete Main
Default : No
Forced : No

Text #1
ID : 5
Format : UTF-8
Codec ID : S_TEXT/UTF8
Codec ID/Info : UTF-8 Plain Text
Duration : 2 h 6 min
Bit rate : 0 b/s
Count of elements : 7
Stream size : 316 Bytes (0%)
Title : Forced
Language : Russian
Default : Yes
Forced : Yes

Text #2
ID : 6
Format : UTF-8
Codec ID : S_TEXT/UTF8
Codec ID/Info : UTF-8 Plain Text
Duration : 2 h 6 min
Bit rate : 72 b/s
Count of elements : 1170
Stream size : 67.3 KiB (0%)
Title : Full
Language : Russian
Default : No
Forced : No

Text #3
ID : 7
Format : UTF-8
Codec ID : S_TEXT/UTF8
Codec ID/Info : UTF-8 Plain Text
Duration : 2 h 5 min
Bit rate : 46 b/s
Count of elements : 1329
Stream size : 43.0 KiB (0%)
Language : English
Default : No
Forced : No

Menu
00:00:00.000 : An Unorthodox Catch/Opening Credits
00:03:34.172 : On Trial
00:08:46.776 : Royal Visit
00:15:58.583 : Escape
00:18:34.155 : The Captain's Daughter
00:21:15.316 : Stolen Identity
00:30:05.512 : The Queen Anne
00:36:56.756 : Mutiny Most Foul
00:42:05.356 : A Bad Man
00:48:20.022 : The Prophecy
00:53:26.078 : Thick as Thieves
00:55:42.965 : The Truth
00:57:52.844 : Whitecap Bay
01:00:47.477 : God Save Me
01:08:22.223 : A Proper Mermaid
01:11:41.339 : Through The Jungle
01:13:03.170 : Whatever is Necessary
01:14:16.744 : A Sudden Urge To Jump
01:23:19.995 : No, You
01:26:49.621 : Jungle Pools
01:30:16.494 : Stirrings
01:35:43.738 : An Improvised Escape
01:40:57.927 : A Trade for the Compass
01:43:07.556 : A Dramatic Entrance
01:44:51.660 : Aqua de Vida
01:48:53.610 : One Last Fight
01:57:41.471 : Do Not Waste My Tear
02:02:21.376 : Choosing the Dog
02:05:51.461 : For The Pearl
02:07:26.806 : Credits

pb.wtf



Скачать Пираты Карибского моря: На странных берегах через торрент https://c.radikal.ru/c02/2201/10/969f44deb50d.jpg Скачать, смотреть онлайн Пираты Карибского моря: На странных берегах бесплантно в хорошем качестве Описание: В новой истории о поисках истины, предательстве, вечной молодости и смертельной опасности капитану Джеку Воробью предстоит ... 10 10 2
Торрент: Зарегистрирован [2022-01-12 09:04] · скачан: 49 раз
Статус: √ проверено
Размер: 49.61 GB
Как cкачать? Как скачать Пираты Карибского моря: На странных берегах через торрент | UTorrent

% Раздел Тема Автор DL S | L
Фильмы (Blu-ray, BD-Remux, HDDVD) [ 25.19 GB ] Пираты Карибского моря: На странных берегах / Pirates of the Caribbean: On Stranger Tides [2011 BD Remux ] Ворон Скачать
1 | 0
Фильмы 2011 [ 2.51 GB ] Пираты Карибского моря: На странных берегах / Pirates of the Caribbean: On Stranger Tides [2011 BDRip-AVC лицензия] Anonymous Скачать
1 | 2
Фильмы [HD 720p, 1080p] (Хороший звук DUB, MVO) [ 7.76 GB ] Пираты Карибского моря: На странных берегах / Pirates of the Caribbean: On Stranger Tides [2011 BDRip 1080p + Оригинал] Бумер Скачать
1 | 0
Фильмы 2011 [ 1.37 GB ] Пираты Карибского моря: На странных берегах / Pirates of the Caribbean: On Stranger Tides [2011. .HDRip] лицензия Shmel Скачать
1 | 0
Фильмы (DVD фильмы) [ 6.87 GB ] Пираты Карибского моря: На странных берегах / Pirates of the Caribbean: On Stranger Tides [2011 DVD9] R5 «Уолт Дисней Компани СНГ» voovaz Скачать
1 | 0
3D Фильмы [ 12.25 GB ] Пираты Карибского моря: На странных берегах 3D / Pirates of the Caribbean: On Stranger Tides 3D [2011 BDRip ] Anamorph SideBySide jora poker Скачать
1 | 0
3D Фильмы [ 10.47 GB ] Пираты Карибского моря: На странных берегах 3D / Pirates of the Caribbean: On Stranger Tides 3D 2011 BDrip 1080p Anaglyph red'cyan slaventi-69 Скачать
1 | 0

28-11-2019 20:33  

Отключить вcю реклaмy на сайте

    Дорогой пользователь! Огромная просьба, поблагодарите релизера, оцените раздачу и оставьте свои комментарий, если Вы скачали Пираты Карибского моря: На странных берегах через торрент бесплатно!
    Комментировать посты могут только пользователи прошедшие не сложную регистрацию
    Показать сообщения:    

    Пираты Карибского моря: На странных берегах через торрент
    Скачать бесплатно Пираты Карибского моря: На странных берегах
    Пираты Карибского моря: На странных берегах скачать торрент
    Пираты Карибского моря: На странных берегах смотреть онлайн
    Cкачать фильм Пираты Карибского моря: На странных берегах бесплатно
    Пираты Карибского моря: На странных берегах скачать торрент в хорошем качестве
    Пираты Карибского моря: На странных берегах смотреть онлайн бесплатно в хорошем качестве


    Вы не можете начинать темы
    Вы не можете отвечать на сообщения
    Вы не можете редактировать свои сообщения
    Вы не можете удалять свои сообщения
    Вы не можете голосовать в опросах
    Вы не можете прикреплять файлы к сообщениям
    Вы можете скачивать файлы