Лицензия

MVO

1

1 сезон

Лицензия

Лицензия

13

MVO

1 сезон

Ultimate

pack

Рекомендуем

30

Repack

ВАЖНО

ВАЖНО

Ghostwire

RePack

jed

RePack

fifa19

RePack

RDR2

RePack

NEED FOR SPEED™ PAYBACK

RePack

Кинопоиск HD

 Острые козырьки 6 сезон

6 сезон

FAR CRY 6

RePack

Лицензия

MVO

1

1 сезон

1 сезон

Лицензия

  

Фонтан Невинности / Fountain of Innocence (Veronica Hart) [1997 г., Feature, Straight, Classic, Anal, DVD9]

Фонтан Невинности через торрент pb.wtf

Размер: 6.11 GB | Добавлен: 8 мес. назад | Торрент скачан:82 раза
Смотреть онлайн Фонтан Невинности | Скачать   

12-01-2022 14:07 Фонтан Невинности Скачать торрент  

Фонтан Невинности / Fountain of Innocence
Год выпуска: 1997
Страна: США
Жанр: Feature, Straight, Classic, Anal
Продолжительность: 01:54:44

Режиссёр: Veronica Hart

В ролях: Juli Ashton, Nina Hartley, Shayla LaVeaux, Macy (as Supremacy), Taren Steele, Toni James, Sharon Mitchell (NonSex), Billy Glide, Jeremy Steele, Ron Jeremy, Sean Rider, Steve Drake, Tom Byron, Vince Vouyer

Описание: From start to finish, you will see why this one was brought back! VCA Pictures digitally re-mastered this lesson in sex. Taren Steele is new to the world of porn, and lucky for her she has some great tutors. With Tom Byron, Juli Ashton, Ron Jeremy and the ultimate: Nina Hartley as your teaching staff...she'll be sucking and fucking like a pro in no time! Don't miss 8 fuck-tastic scenes filled with 69, DP, Anal, Facials, Girl + Girl squiriting, rim jobs, a 9 person poolside orgy and much, much more!
It's sometimes rough being the new cunt in town...
Качество: DVD9
Формат: DVD Video
Видео: 720x480, MPEG 2, 5720 Кбит/сек
Аудио: Английский, AC3, 2 ch, 192 Кбит/сек
Видео
Идентификатор : 224 (0xE0)
Формат : MPEG Video
Версия формата : Version 2
Профиль формата : [email protected]
Настройки формата : CustomMatrix / BVOP
Параметр BVOP формата : Да
Параметр матрицы формата : Выборочная
Параметр GOP формата : Variable
Продолжительность : 23 м. 43 с.
Вид битрейта : Переменный
Битрейт : 5 720 Кбит/сек
Максимальный битрейт : 7 500 Кбит/сек
Ширина : 720 пикселей
Высота : 480 пикселей
Соотношение сторон : 4:3
Частота кадров : 29,970 (30000/1001) кадров/сек
Стандарт вещания : NTSC
Цветовое пространство : YUV
Субдискретизация насыщенности : 4:2:0
Битовая глубина : 8 бит
Тип развёртки : Прогрессивная
Порядок развёртки : Нижнее поле первое
Метод сжатия : С потерями
Бит/(Пиксели*Кадры) : 0.552
Временной код первого кадра : 01:00:00;00
Оригинал временного кода : Group of pictures header
GOP, открыто/закрыто : Закрыто
Размер потока : 971 Мбайт (95%)
Основные цвета : BT.601 NTSC
Характеристики трансфера : BT.601
Коэффициенты матрицы : BT.601

Аудио
Идентификатор : 189 (0xBD)-128 (0x80)
Формат : AC-3
Формат/Информация : Audio Coding 3
Коммерческое название : Dolby Digital
Режим смешивания : DVD-Video
Продолжительность : 23 м. 43 с.
Вид битрейта : Постоянный
Битрейт : 192 Кбит/сек
Каналы : 2 канала
Channel layout : L R
Частота : 48,0 КГц
Частота кадров : 31,250 кадров/сек (1536 SPF)
Метод сжатия : С потерями
Размер потока : 32,6 Мбайт (3%)
Service kind : Complete Main




pack Скачать Фонтан Невинности через торрент https://d.radikal.ru/d38/2201/61/f10970eb2a7f.jpg Скачать, смотреть онлайн Фонтан Невинности бесплантно в хорошем качестве Описание: From start to finish, you will see why this one was brought back! VCA Pictures digitally re-mastered this lesson in sex. Taren ... 9.8 10 5
Info! Золотая раздача, скачанное не засчитывается.
Торрент: Зарегистрирован [2022-01-12 14:07] · скачан: 82 раз
Статус: √ проверено
Размер: 6.11 GB
Как cкачать? Как скачать Фонтан Невинности через торрент | UTorrent




Последний раз редактировалось: Леонид Ильич (2022-01-13 08:14), всего редактировалось 1 раз

28-11-2019 20:33  

Отключить вcю реклaмy на сайте

12-01-2022 16:50 Фонтан Невинности Скачать торрент  

Топик был перенесен из форума Полнометражные порно фильмы в форум Порно фильмы DVD


[email protected]



pack
    Дорогой пользователь! Огромная просьба, поблагодарите релизера, оцените раздачу и оставьте свои комментарий, если Вы скачали Фонтан Невинности через торрент бесплатно!!
    Комментировать посты могут только пользователи прошедшие не сложную регистрацию
    Показать сообщения:    


    Фонтан Невинности через торрент
    Скачать бесплатно Фонтан Невинности
    Фонтан Невинности скачать торрент
    Фонтан Невинности смотреть онлайн
    Cкачать фильм Фонтан Невинности бесплатно
    Фонтан Невинности скачать торрент в хорошем качестве
    Фонтан Невинности смотреть онлайн бесплатно в хорошем качестве
    Вы не можете начинать темы
    Вы не можете отвечать на сообщения
    Вы не можете редактировать свои сообщения
    Вы не можете удалять свои сообщения
    Вы не можете голосовать в опросах
    Вы не можете прикреплять файлы к сообщениям
    Вы можете скачивать файлы