Всегда рабочее зеркало просто перед .vidak.icu напиши любое слово или цифру, Пример http://x8w.vidak.icu

>

7.4

iTunes

7.4

2 сезон

9.4

1 сезон

1

7.4

2 сезон

7.2

iTunes

6.0

MVO

13

6.1

iTunes

8.3

Пиратка

30

ULTIMATE

pack

9.9

Лицензия

ВАЖНО

ИГРА 18+

pack

7.3

RePack

MK11

7.7

RePack

jed

7.8

RePack

fifa19

8.5

RePack

RDR2

RePack

NEED FOR SPEED™ PAYBACK

1 сезон

9 сезон

Бесстыжие 9 сезон

Все сериалы

все сериалы на PB.wtf

RePack

FAR CRY 5

Anonymous, добрый день, мы катастрофически не успеваем собрать деньги на оплату серверов, помогите нам пожалуйста 5,10,15р., для нас важна любая помощь . В качестве благодарности мы отключим Вам всю рекламу на сайте (укажите свой ник в строку Ваше имя)!

×
  
Magnet ссылка

Запрещённые игры / Tutti Frutti unzensiert / Erotic Games (Nicholas Moore) [1990 г., Feature, Classic, Anal, DVD5] pb.wtf

Запрещённые игры через торрент pb.wtf

Раздают: 10 [ 2 MB/s ] Качают: 2 [ 0 KB/s ]
Размер: 4.03 GB | Добавлен: 4 д. назад | Торрент скачан:81 раз
Смотреть онлайн Запрещённые игры | Скачать    Ребята, помогите собрать деньги на оплату серверов!!!

13-01-2022 13:57 Запрещённые игры Скачать торрент  

Запрещённые игры / Tutti Frutti unzensiert / Erotic Games
Год выпуска: 1990
Страна: Italy
Жанр: Feature, Classic, Anal
Продолжительность: 01:20:26

Режиссёр: Nicholas Moore

В ролях: Cindy Labare, Eva Orlowsky, Joy Karin's, Miss Pomodoro, Sofia Randovic, Jon Dough, Ray Victory, Rocco Siffredi, Ron Jeremy, Walter Carrera

Описание: Поминаете ли вы ещё о Тутти Фрутти, культовой передаче 80-ых? Наконец, вы увидите не подвергнутую цензуре версию: Содержащую все особые желания кандидатов и зрителей. Сексуальные танцовщицы в студии заботятся о действительно горячей атмосфере, но также вы узнаете, кто с кем тра… и за кулисами.
Качество: DVD5
Формат: DVD Video
Видео: 720x576, MPEG 2, 6000 Кбит/сек
Аудио: Немецкий, AC3, 2 ch, 128 Кбит/сек
Видео
Идентификатор : 224 (0xE0)
Формат : MPEG Video
Версия формата : Version 2
Профиль формата : Main@Main
Настройки формата : CustomMatrix / BVOP
Параметр BVOP формата : Да
Параметр матрицы формата : Выборочная
Параметр GOP формата : Variable
Структура изображения : Frame
Продолжительность : 39 с. 120 мс.
Вид битрейта : Переменный
Битрейт : 215 Мбит/сек
Максимальный битрейт : 6 000 Кбит/сек
Ширина : 720 пикселей
Высота : 576 пикселей
Соотношение сторон : 4:3
Частота кадров : 25,000 кадров/сек
Стандарт вещания : PAL
Цветовое пространство : YUV
Субдискретизация насыщенности : 4:2:0
Битовая глубина : 8 бит
Тип развёртки : Чересстрочная
Порядок развёртки : Верхнее поле первое
Метод сжатия : С потерями
Бит/(Пиксели*Кадры) : 20.741
Временной код первого кадра : 00:00:00:00
Оригинал временного кода : Group of pictures header
GOP, открыто/закрыто : Закрыто
Размер потока : 1 003 Мбайт (98%)

Аудио
Идентификатор : 189 (0xBD)-128 (0x80)
Формат : AC-3
Формат/Информация : Audio Coding 3
Коммерческое название : Dolby Digital
Режим смешивания : DVD-Video
Продолжительность : 39 с. 40 мс.
Вид битрейта : Постоянный
Битрейт : 128 Кбит/сек
Каналы : 2 канала
Channel layout : L R
Частота : 48,0 КГц
Частота кадров : 31,250 кадров/сек (1536 SPF)
Метод сжатия : С потерями
Размер потока : 610 Кбайт (0%)
Service kind : Complete Main

pb.wtf



pack Скачать Запрещённые игры через торрент https://a.radikal.ru/a14/2201/88/0d1dbe810625.png Скачать, смотреть онлайн Запрещённые игры бесплантно в хорошем качестве Описание: Поминаете ли вы ещё о Тутти Фрутти, культовой передаче 80-ых? Наконец, вы увидите не подвергнутую цензуре версию: Содержащую все ... 9.6 10 5
Info! Золотая раздача, скачанное не засчитывается.
Торрент: Зарегистрирован [2022-01-13 13:57] · скачан: 81 раз
Статус: √ проверено
Размер: 4.03 GB
Как cкачать? Как скачать Запрещённые игры через торрент | UTorrent

28-11-2019 20:33  

Отключить всю рекламу на сайте

13-01-2022 16:30 Запрещённые игры Скачать торрент  

Топик был перенесен из форума Полнометражные порно фильмы в форум Порно фильмы DVD


Pir@tya2010pb.wtf



pack
    Дорогой пользователь! Огромная просьба, поблагодарите релизера, оцените раздачу и оставьте свои комментарий, если Вы скачали Запрещённые игры через торрент бесплатно!
    Комментировать посты могут только пользователи прошедшие не сложную регистрацию
    Показать сообщения:    

    Запрещённые игры через торрент
    Скачать бесплатно Запрещённые игры
    Запрещённые игры скачать торрент
    Запрещённые игры смотреть онлайн
    Cкачать фильм Запрещённые игры бесплатно
    Запрещённые игры скачать торрент в хорошем качестве
    Запрещённые игры смотреть онлайн бесплатно в хорошем качестве


    Вы не можете начинать темы
    Вы не можете отвечать на сообщения
    Вы не можете редактировать свои сообщения
    Вы не можете удалять свои сообщения
    Вы не можете голосовать в опросах
    Вы не можете прикреплять файлы к сообщениям
    Вы можете скачивать файлы