Всегда рабочее зеркало просто перед .vidak.icu напиши любое слово или цифру, Пример http://09w.vidak.icu

>

7.4

iTunes

7.4

2 сезон

6.6

iTunes

1

7.4

2 сезон

7.2

iTunes

6.0

MVO

13

6.1

iTunes

8.3

Пиратка

30

ULTIMATE

pack

9.9

Лицензия

ВАЖНО

ИГРА 18+

pack

7.3

RePack

MK11

7.7

RePack

jed

7.8

RePack

fifa19

8.5

RePack

RDR2

RePack

NEED FOR SPEED™ PAYBACK

1 сезон

9 сезон

Бесстыжие 9 сезон

Все сериалы

все сериалы на PB.wtf

RePack

FAR CRY 5

Anonymous, добрый день, мы катастрофически не успеваем собрать деньги на оплату серверов, помогите нам пожалуйста 5,10,15р., для нас важна любая помощь . В качестве благодарности мы отключим Вам всю рекламу на сайте (укажите свой ник в строку Ваше имя)!

×
  
Magnet ссылка

Миротворец / Peacemaker / Сезон: 1 / Серии: 1-4 из 8 (Джеймс Ганн, Брэд Андерсон) [2022, Фантастика, фэнтези, боевик, комедия, криминал, приключения, WEB-DLR 1080p] MVO [HDRezka Studio] pb.wtf

Миротворец через торрент pb.wtf

Раздают: 8 [ 3 MB/s ] Качают: 12 [ 3 MB/s ]
Размер: 11.55 GB | Добавлен: 1 д. 4 ч. назад | Торрент скачан:14 раз
Смотреть онлайн Миротворец | Скачать    Ребята, помогите собрать деньги на оплату серверов!!!

14-01-2022 06:14 Миротворец Скачать торрент  

Миротворец
Peacemaker

Год выпуска: 2022
Страна: США
Выпущено: DC Entertainment, Safran Company, The, Troll Court Entertainment, Warner Bros. Television
Жанр: Фантастика, фэнтези, боевик, комедия, криминал, приключения
Продолжительность: ~ 00:47:00 серия
Перевод: Профессиональный (многоголосый, закадровый) | HDRezka Studio
Субтитры: Русские (Forced), английские (Full, SDH)

Режиссер: Джеймс Ганн, Брэд Андерсон

rating

В ролях: Джон Сина, Дженнифер Холлэнд, Фредди Строма, Роберт Патрик, Кристофер Хейердал, Стив Эйджи, Даниэль Брукс, Чаквуди Ивуджи, Нют Ле, Локлин Манро

Описание: Спин-офф фильма «Отряд самоубийц» 2021 года. Сериал рассказывает о происхождении Миротворца и его миссиях. Миротворец — экстремист, который готов на все ради мира во всем мире, в том числе и на убийства.

Качество: WEB-DLR 1080p
Формат: MKV

Видео: 1920х1080 (16:9), fps, AVC (х264), High@L4, ~8250 kbps avg, 0.166 bit/pixel
Аудио RUS 1: 48 kHz, AC3, 3/2 (L,C,R,l,r) + LFE ch, ~448 kbps avg * версия озвучки Censored
Аудио RUS 2: 48 kHz, AC3, 3/2 (L,C,R,l,r) + LFE ch, ~448 kbps avg * версия озвучки Uncensored
Аудио ENG 3: 48 kHz, AC3, 3/2 (L,C,R,l,r) + LFE ch, ~384 kbps avg

Общее
Уникальный идентификатор : 311912821352578329204060094221530306721 (0xEAA83969A2C0D51DAE63FE6888AE18A1)
Полное имя : Peacemaker.2022.S01E01.WEB-DL.1080p.HMAX.HDREZKA.STUDIO.mkv
Формат : Matroska
Версия формата : Version 4
Размер файла : 2,96 Гбайт
Продолжительность : 46 м. 40 с.
Режим общего битрейта : Переменный
Общий поток : 9 069 Кбит/сек
Дата кодирования : UTC 2022-01-14 05:11:43
Программа кодирования : mkvmerge v64.0.0 ('Willows') 64-bit
Библиотека кодирования : libebml v1.4.2 + libmatroska v1.6.4

Видео
Идентификатор : 1
Формат : AVC
Формат/Информация : Advanced Video Codec
Профиль формата : High@L4
Настройки формата : CABAC / 4 Ref Frames
Параметр CABAC формата : Да
Параметр RefFrames формата : 4 кадра
Идентификатор кодека : V_MPEG4/ISO/AVC
Продолжительность : 46 м. 40 с.
Вид битрейта : Переменный
Битрейт : 8 250 Кбит/сек
Максимальный битрейт : 12,4 Мбит/сек
Ширина : 1 920 пикселей
Высота : 1 080 пикселей
Соотношение сторон : 16:9
Режим частоты кадров : Постоянный
Частота кадров : 23,976 (24000/1001) кадра/сек
Цветовое пространство : YUV
Субдискретизация насыщенности : 4:2:0
Битовая глубина : 8 бит
Тип развёртки : Прогрессивная
Бит/(Пиксели*Кадры) : 0.166
Размер потока : 2,68 Гбайт (91%)
Библиотека кодирования : x264 core 157 r2965 861cec4
Настройки программы : cabac=1 / ref=4 / deblock=1:0:0 / analyse=0x3:0x113 / me=hex / subme=7 / psy=1 / psy_rd=1.00:0.00 / mixed_ref=1 / me_range=16 / chroma_me=1 / trellis=1 / 8x8dct=1 / cqm=0 / deadzone=21,11 / fast_pskip=1 / chroma_qp_offset=-2 / threads=34 / lookahead_threads=5 / sliced_threads=0 / nr=0 / decimate=1 / interlaced=0 / bluray_compat=0 / constrained_intra=0 / bframes=3 / b_pyramid=2 / b_adapt=1 / b_bias=0 / direct=1 / weightb=1 / open_gop=0 / weightp=2 / keyint=96 / keyint_min=96 / scenecut=40 / intra_refresh=0 / rc_lookahead=40 / rc=2pass / mbtree=1 / bitrate=8250 / ratetol=1.0 / qcomp=0.60 / qpmin=0 / qpmax=69 / qpstep=4 / cplxblur=20.0 / qblur=0.5 / vbv_maxrate=12375 / vbv_bufsize=6187 / nal_hrd=vbr / filler=0 / ip_ratio=1.40 / aq=1:1.00
Default : Да
Forced : Нет
Цветовой диапазон : Limited
Основные цвета : BT.709
Характеристики трансфера : BT.709
Коэффициенты матрицы : BT.709

Аудио #1
Идентификатор : 2
Формат : AC-3
Формат/Информация : Audio Coding 3
Коммерческое название : Dolby Digital
Идентификатор кодека : A_AC3
Продолжительность : 46 м. 40 с.
Вид битрейта : Постоянный
Битрейт : 448 Кбит/сек
Каналы : 6 каналов
Channel layout : L R C LFE Ls Rs
Частота : 48,0 КГц
Частота кадров : 31,250 кадров/сек (1536 SPF)
Метод сжатия : С потерями
Размер потока : 150 Мбайт (5%)
Язык : Russian
Default : Да
Forced : Нет

Аудио #2
Идентификатор : 3
Формат : AC-3
Формат/Информация : Audio Coding 3
Коммерческое название : Dolby Digital
Идентификатор кодека : A_AC3
Продолжительность : 46 м. 40 с.
Вид битрейта : Постоянный
Битрейт : 384 Кбит/сек
Каналы : 6 каналов
Channel layout : L R C LFE Ls Rs
Частота : 48,0 КГц
Частота кадров : 31,250 кадров/сек (1536 SPF)
Метод сжатия : С потерями
Размер потока : 128 Мбайт (4%)
Язык : English
Default : Нет
Forced : Нет

Текст #1
Идентификатор : 4
Формат : UTF-8
Идентификатор кодека : S_TEXT/UTF8
Идентификатор кодека/Информация : UTF-8 Plain Text
Продолжительность : 41 м. 55 с.
Битрейт : 14 бит/сек
Count of elements : 72
Размер потока : 4,37 Кбайт (0%)
Заголовок : Forced
Язык : Russian
Default : Нет
Forced : Нет

Текст #2
Идентификатор : 5
Формат : UTF-8
Идентификатор кодека : S_TEXT/UTF8
Идентификатор кодека/Информация : UTF-8 Plain Text
Продолжительность : 46 м. 21 с.
Битрейт : 86 бит/сек
Count of elements : 809
Размер потока : 29,4 Кбайт (0%)
Язык : English
Default : Нет
Forced : Нет

Текст #3
Идентификатор : 6
Формат : UTF-8
Идентификатор кодека : S_TEXT/UTF8
Идентификатор кодека/Информация : UTF-8 Plain Text
Продолжительность : 46 м. 21 с.
Битрейт : 102 бит/сек
Count of elements : 940
Размер потока : 34,9 Кбайт (0%)
Заголовок : SDH
Язык : English
Default : Нет
Forced : Нет

Меню
00:00:00.000 : en:Chapter 1
00:06:11.288 : en:Intro
00:07:34.705 : en:Chapter 2
00:10:06.188 : en:Chapter 3
00:20:14.630 : en:Chapter 4
00:29:29.017 : en:Chapter 5
00:46:36.000 : en:Credits

Когда раздача ведётся путём добавления новых серий, при каждом добавлении создётся новый торрент. Чтобы начать докачку новой серии, пользователям необходимо сделать следующее:
(1) остановить скачивание,
(2) удалить старый торрент у себя из клиента (старые серии удалять не надо),
(3) скачать новый торрент и запустить его у себя в клиенте вместо старого, при этом указать клиенту путь в старую папку, куда и должно происходить скачивание новых серий.
Ваш клиент при этом должен произвести хеширование (проверку) старой папки (если не производит сам - помогите ему сделать это), и будет докачивать только те серии, которых у вас ещё нет. Старые серии при этом не удаляются, а продолжают раздаваться!
Eсли вы уже удалили старые серии, то предотвратить повторную закачку старых серий можно, отжав галочку в соответсвующих местах при запуске нового торрента. По возможности, желательно не удалять старые серии как можно дольше, чтобы релизёр не столько продолжал раздавать старые серии, а смог сконцентрироваться на новых.

pb.wtf



Скачать Миротворец через торрент https://c.radikal.ru/c27/2201/5b/d5cb80b51610.jpg Скачать, смотреть онлайн Миротворец бесплантно в хорошем качестве Описание: Спин-офф фильма «Отряд самоубийц» 2021 года. Сериал рассказывает о происхождении Миротворца и его миссиях. Миротворец — ... 10 10 5
Торрент: Зарегистрирован [2022-01-21 07:54] · скачан: 14 раз
Статус: √ проверено
Размер: 11.55 GB
Как cкачать? Как скачать Миротворец через торрент | UTorrent

% Раздел Тема Автор DL S | L
Зарубежные сериалы [ 2.67 GB ] Миротворец / Peacemaker / Сезон: 1 / Серии: 1-4 из 8 [2022 WEB-DLRip] MVO [HDRezka Studio] bober100 Скачать
6 | 3
Зарубежные сериалы [ 2.87 GB ] Миротворец / Peacemaker / Сезон: 1 / Серии: 1-4 из 8 [2022 WEB-DL 1080p] [MVO] + [Ukr MVO] killermax2013 Скачать
9 | 3
Зарубежные сериалы [ 10.93 GB ] Миротворец / Peacemaker / Сезон: 1 / Серии: 1-4 из 8 [2022 WEB-DLR 1080p] MVO [Novamedia] bober100 Скачать
14 | 11
T Зарубежные сериалы [ 1.89 GB ] Миротворец / Peacemaker / Сезон: 1 / Серии: 1-4 из 8 [2022 WEBRip] MVO [ColdFilm] bober100 Скачать
9 | 7

28-11-2019 20:33  

Отключить всю рекламу на сайте

    Дорогой пользователь! Огромная просьба, поблагодарите релизера, оцените раздачу и оставьте свои комментарий, если Вы скачали Миротворец через торрент бесплатно!
    Комментировать посты могут только пользователи прошедшие не сложную регистрацию
    Показать сообщения:    

    Миротворец через торрент
    Скачать бесплатно Миротворец
    Миротворец скачать торрент
    Миротворец смотреть онлайн
    Cкачать фильм Миротворец бесплатно
    Миротворец скачать торрент в хорошем качестве
    Миротворец смотреть онлайн бесплатно в хорошем качестве


    Вы не можете начинать темы
    Вы не можете отвечать на сообщения
    Вы не можете редактировать свои сообщения
    Вы не можете удалять свои сообщения
    Вы не можете голосовать в опросах
    Вы не можете прикреплять файлы к сообщениям
    Вы можете скачивать файлы