Всегда рабочее зеркало без VPN и Proxy просто перед .vidak.icu напиши любое слово или цифру, Пример http://6qfp.vidak.icu

Лицензия

MVO

1 сезон

1

1 сезон

iTunes

1 сезон

13

1 сезон

Deluxe

pack

Рекомендуем

Repack

30

ВАЖНО

RePack

MK11

RePack

jed

RePack

fifa19

RePack

RDR2

RePack

NEED FOR SPEED™ PAYBACK

Кинопоиск HD

6 сезон

 Острые козырьки 6 сезон

Все сериалы

все сериалы на PB.wtf

RePack

FAR CRY 5
  
Magnet ссылка

Трагедия Макбета / The Tragedy of Macbeth (Джоэл Коэн) [2021, Триллер, драма, военный, история, UHD WEB-DL 2160p] DUB [Невафильм] pb.wtf

Трагедия Макбета через торрент pb.wtf

Размер: 19.03 GB | Добавлен: 7 мес. назад | Торрент скачан:41 раз
Смотреть онлайн Трагедия Макбета | Скачать    Ребята, помогите собрать деньги на оплату серверов!!!

15-01-2022 08:12 Трагедия Макбета Скачать торрент  

Трагедия Макбета
The Tragedy of Macbeth

Год выпуска: 2021
Страна: США
Выпущено: A24, Scott Rudin Productions
Жанр: Триллер, драма, военный, история
Продолжительность: 01:45:08
Перевод: Дублированный | Невафильм
Субтитры: Русские (forced, full, SDH), английские (full, SDH)

Режиссер: Джоэл Коэн

rating

В ролях: Дензел Вашингтон, Фрэнсис МакДорманд, Алекс Хэсселл, Берти Карвел, Брендан Глисон, Кори Хоукинс, Гарри Меллинг, Майлз Андерсон, Мэтт Хельм, Моусес Ингрэм, Кэтрин Хантер, Макс Бейкер, Скотт Субионо, Брайан Томпсон, Лукас Баркер

Описание: По одноимённой пьесе Уильяма Шекспира. Ведьмы убеждают шотландского лорда Макбета в том, что ему суждено стать королём. Предавая друзей и следуя советам честолюбивой жены, он выбирает зло способом достижения своих целей.

Качество: UHD WEB-DL 2160p
Формат: MKV

Видео: HEVC HDR, 23.6 Мбит/с, 2956x2160, 23.976 кадр/c, 10 бит
Аудио №1: E-AC3 ATMOS, 48 kHz, 6 ch, 768 kbps
Аудио №2: E-AC3 ATMOS, 48 kHz, 6 ch, 768 kbps - Тифлокомментирование
Аудио №3: E-AC3 ATMOS, 48 kHz, 6 ch, 768 kbps

General
Unique ID : 125916736822973017514991896583812080394 (0x5EBAAE6FE1E1324C85C65E57C872E30A)
Complete name : H:\UHD\Трагедия Макбета.2021.WEB-DL.2160p.HDR.mkv
Format : Matroska
Format version : Version 4
File size : 19.0 GiB
Duration : 1 h 45 min
Overall bit rate : 25.9 Mb/s
Encoded date : UTC 2022-01-14 19:09:51
Writing application : mkvmerge v64.0.0 ('Willows') 64-bit
Writing library : libebml v1.4.2 + libmatroska v1.6.4
Attachments : poster.jpg

Video
ID : 1
Format : HEVC
Format/Info : High Efficiency Video Coding
Format profile : Main [email protected]@High
HDR format : SMPTE ST 2086, HDR10 compatible
Codec ID : V_MPEGH/ISO/HEVC
Duration : 1 h 45 min
Bit rate : 23.6 Mb/s
Width : 2 956 pixels
Height : 2 160 pixels
Display aspect ratio : 4:3
Frame rate mode : Constant
Frame rate : 23.976 FPS
Color space : YUV
Chroma subsampling : 4:2:0 (Type 2)
Bit depth : 10 bits
Bits/(Pixel*Frame) : 0.154
Stream size : 17.3 GiB (91%)
Default : Yes
Forced : No
Color range : Limited
Color primaries : BT.2020
Transfer characteristics : PQ
Matrix coefficients : BT.2020 non-constant
Mastering display color primaries : Display P3
Mastering display luminance : min: 0.0050 cd/m2, max: 1000 cd/m2
Maximum Content Light Level : 760 cd/m2
Maximum Frame-Average Light Level : 207 cd/m2

Audio #1
ID : 2
Format : E-AC-3 JOC
Format/Info : Enhanced AC-3 with Joint Object Coding
Commercial name : Dolby Digital Plus with Dolby Atmos
Codec ID : A_EAC3
Duration : 1 h 45 min
Bit rate mode : Constant
Bit rate : 768 kb/s
Channel(s) : 6 channels
Channel layout : L R C LFE Ls Rs
Sampling rate : 48.0 kHz
Frame rate : 31.250 FPS (1536 SPF)
Compression mode : Lossy
Stream size : 578 MiB (3%)
Title : Dub, Невафильм
Language : Russian
Service kind : Complete Main
Default : Yes
Forced : No
Complexity index : 16
Number of dynamic objects : 15
Bed channel count : 1 channel
Bed channel configuration : LFE

Audio #2
ID : 3
Format : E-AC-3 JOC
Format/Info : Enhanced AC-3 with Joint Object Coding
Commercial name : Dolby Digital Plus with Dolby Atmos
Codec ID : A_EAC3
Duration : 1 h 45 min
Bit rate mode : Constant
Bit rate : 768 kb/s
Channel(s) : 6 channels
Channel layout : L R C LFE Ls Rs
Sampling rate : 48.0 kHz
Frame rate : 31.250 FPS (1536 SPF)
Compression mode : Lossy
Stream size : 578 MiB (3%)
Title : Audio Description
Language : Russian
Service kind : Complete Main
Default : No
Forced : No
Complexity index : 16
Number of dynamic objects : 15
Bed channel count : 1 channel
Bed channel configuration : LFE

Audio #3
ID : 4
Format : E-AC-3 JOC
Format/Info : Enhanced AC-3 with Joint Object Coding
Commercial name : Dolby Digital Plus with Dolby Atmos
Codec ID : A_EAC3
Duration : 1 h 45 min
Bit rate mode : Constant
Bit rate : 768 kb/s
Channel(s) : 6 channels
Channel layout : L R C LFE Ls Rs
Sampling rate : 48.0 kHz
Frame rate : 31.250 FPS (1536 SPF)
Compression mode : Lossy
Stream size : 578 MiB (3%)
Language : English
Service kind : Complete Main
Default : No
Forced : No
Complexity index : 16
Number of dynamic objects : 15
Bed channel count : 1 channel
Bed channel configuration : LFE

Text #1
ID : 5
Format : UTF-8
Codec ID : S_TEXT/UTF8
Codec ID/Info : UTF-8 Plain Text
Duration : 1 h 31 min
Bit rate : 0 b/s
Count of elements : 3
Stream size : 101 Bytes (0%)
Title : forced
Language : Russian
Default : Yes
Forced : No

Text #2
ID : 6
Format : UTF-8
Codec ID : S_TEXT/UTF8
Codec ID/Info : UTF-8 Plain Text
Duration : 1 h 44 min
Bit rate : 100 b/s
Count of elements : 1369
Stream size : 76.6 KiB (0%)
Title : full
Language : Russian
Default : No
Forced : No

Text #3
ID : 7
Format : UTF-8
Codec ID : S_TEXT/UTF8
Codec ID/Info : UTF-8 Plain Text
Duration : 1 h 44 min
Bit rate : 110 b/s
Count of elements : 1517
Stream size : 84.7 KiB (0%)
Title : SDH
Language : Russian
Default : No
Forced : No

Text #4
ID : 8
Format : UTF-8
Codec ID : S_TEXT/UTF8
Codec ID/Info : UTF-8 Plain Text
Duration : 1 h 39 min
Bit rate : 71 b/s
Count of elements : 1346
Stream size : 52.2 KiB (0%)
Title : full
Language : English
Default : No
Forced : No

Text #5
ID : 9
Format : UTF-8
Codec ID : S_TEXT/UTF8
Codec ID/Info : UTF-8 Plain Text
Duration : 1 h 41 min
Bit rate : 76 b/s
Count of elements : 1487
Stream size : 56.5 KiB (0%)
Title : SDH
Language : English
Default : No
Forced : No

pb.wtf



Скачать Трагедия Макбета через торрент https://i7.imageban.ru/out/2022/01/13/287ffd59a5dbf532a1bd38ceb365be64.jpg Скачать, смотреть онлайн Трагедия Макбета бесплантно в хорошем качестве Описание: По одноимённой пьесе Уильяма Шекспира. Ведьмы убеждают шотландского лорда Макбета в том, что ему суждено стать королём. Предавая ... 8.8 10 6
Торрент: Зарегистрирован [2022-01-15 08:12] · скачан: 41 раз
Статус: √ проверено
Размер: 19.03 GB
Как cкачать? Как скачать Трагедия Макбета через торрент | UTorrent

% Раздел Тема Автор DL S | L
Ultra HD (UHD: 2K, 4K, 8K) — видео сверхвысокой чёткости [ 16.69 GB ] Трагедия Макбета / The Tragedy of Macbeth [2021 военный история UHD WEB-DL 2160p ] DUB [Невафильм] bober100 Скачать
1 | 0
Фильмы 2021 [DVDrip, WEB-DLRip, HDrip] (DUB, MVO) [ 1.46 GB ] Трагедия Макбета / The Tragedy of Macbeth [2021 военный история WEB-DLRip] DUB [Невафильм] bober100 Скачать
4 | 0
Фильмы (WEB-DL 720p, 1080p) [ 9.01 GB ] Трагедия Макбета / The Tragedy of Macbeth [2021 военный история WEB-DL 1080p] DUB [Невафильм] bober100 Скачать
3 | 0

28-11-2019 20:33  

Отключить вcю реклaмy на сайте

    Дорогой пользователь! Огромная просьба, поблагодарите релизера, оцените раздачу и оставьте свои комментарий, если Вы скачали Трагедия Макбета через торрент бесплатно!
    Комментировать посты могут только пользователи прошедшие не сложную регистрацию
    Показать сообщения:    

    Трагедия Макбета через торрент
    Скачать бесплатно Трагедия Макбета
    Трагедия Макбета скачать торрент
    Трагедия Макбета смотреть онлайн
    Cкачать фильм Трагедия Макбета бесплатно
    Трагедия Макбета скачать торрент в хорошем качестве
    Трагедия Макбета смотреть онлайн бесплатно в хорошем качестве


    Вы не можете начинать темы
    Вы не можете отвечать на сообщения
    Вы не можете редактировать свои сообщения
    Вы не можете удалять свои сообщения
    Вы не можете голосовать в опросах
    Вы не можете прикреплять файлы к сообщениям
    Вы можете скачивать файлы