Всегда рабочее зеркало без VPN и Proxy просто перед .vidak.icu напиши любое слово или цифру, Пример http://idbd.vidak.icu

iTunes

2 сезон

1 сезон

1

1 сезон

iTunes

2 сезон

13

1 сезон

Deluxe

pack

Рекомендуем

Пиратка

30

ВАЖНО

RePack

MK11

RePack

jed

RePack

fifa19

RePack

RDR2

RePack

NEED FOR SPEED™ PAYBACK

Кинопоиск HD

6 сезон

 Острые козырьки 6 сезон

Все сериалы

все сериалы на PB.wtf

RePack

FAR CRY 5

Anonymous, нам критически не хватает 5601 руб. на оплату серверов и переферии за Апрель, помоги нам пожалуйста, вся надежда только на тебя. В благодарность мы отключим тебе всю рекламу на сайте!

×
  
Magnet ссылка

Миротворец / Peacemaker / Сезон: 1 / Серии: 1-8 из 8 (Джеймс Ганн, Брэд Андерсон) [2022, Фантастика, фэнтези, боевик, комедия, криминал, приключения, WEB-DLRip] MVO [HDRezka Studio] pb.wtf

Миротворец через торрент pb.wtf

Раздают: 3 [ 0 KB/s ]
Размер: 5.32 GB | Добавлен: 3 мес. 10 д. назад | Торрент скачан:138 раз
Смотреть онлайн Миротворец | Скачать    Ребята, помогите собрать деньги на оплату серверов!!!

15-01-2022 08:27 Миротворец Скачать торрент  

Миротворец
Peacemaker

Год выпуска: 2022
Страна: США
Выпущено: DC Entertainment, Safran Company, The, Troll Court Entertainment, Warner Bros. Television
Жанр: Фантастика, фэнтези, боевик, комедия, криминал, приключения
Продолжительность: ~ 00:47:00 серия
Перевод: Профессиональный (многоголосый, закадровый) | HDRezka Studio
Субтитры: Русские (Forced)

Режиссер: Джеймс Ганн, Брэд Андерсон

rating

В ролях: Джон Сина, Дженнифер Холлэнд, Фредди Строма, Роберт Патрик, Кристофер Хейердал, Стив Эйджи, Даниэль Брукс, Чаквуди Ивуджи, Нют Ле, Локлин Манро

Описание: Спин-офф фильма «Отряд самоубийц» 2021 года. Сериал рассказывает о происхождении Миротворца и его миссиях. Миротворец — экстремист, который готов на все ради мира во всем мире, в том числе и на убийства.

Качество: WEB-DLRip
Формат: AVI

Видео: 720x400 (16:9), 23.976 fps, XviD, 1600 Kbps
Аудио RUS 1: AC3, 48.0 KHz, 2 ch, 192 kbps [HDRezka Studio] - С цензурой
Аудио RUS 2: AC3, 48.0 KHz, 2 ch, 192 kbps [HDRezka Studio] - Без цензуры
Аудио ENG 3: AC3, 48.0 KHz, 2 ch, 192 kbps
скриншот  скриншот  скриншот  

скриншот  скриншот  скриншот  

General
Complete name : Downloads\Peacemaker.2022.S01.WEB-DLRip.HDRezka.Studio\Peacemaker.S01.E01.WEB-DLRip.Rus.Eng.by.Сибиряк.avi
Format : AVI
Format/Info : Audio Video Interleave
File size : 733 MiB
Duration : 46 min 40 s
Overall bit rate : 2 195 kb/s
Writing application : VirtualDubMod 1.5.10.2 (build 2540/release)
Writing library : VirtualDubMod build 2540/release
Video #0
ID : 0
Format : MPEG-4 Visual
Format profile : Advanced Simple@L5
Format settings : BVOP1
Format settings, BVOP : 1
Format settings, QPel : No
Format settings, GMC : No warppoints
Format settings, Matrix : Default (H.263)
Codec ID : XVID
Codec ID/Hint : XviD
Duration : 46 min 40 s
Bit rate : 1 600 kb/s
Width : 720 pixels
Height : 400 pixels
Display aspect ratio : 16:9
Frame rate : 23.976 (24000/1001) FPS
Color space : YUV
Chroma subsampling : 4:2:0
Bit depth : 8 bits
Scan type : Progressive
Compression mode : Lossy
Bits/(Pixel*Frame) : 0.232
Stream size : 534 MiB (73%)
Writing library : XviD 69
Audio #1
ID : 1
Format : AC-3
Format/Info : Audio Coding 3
Codec ID : 2000
Duration : 46 min 40 s
Bit rate mode : Constant
Bit rate : 192 kb/s
Channel(s) : 2 channels
Channel positions : Front: L R
Sampling rate : 48.0 kHz
Frame rate : 31.250 FPS (1536 SPF)
Bit depth : 16 bits
Compression mode : Lossy
Stream size : 64.1 MiB (9%)
Alignment : Split accross interleaves
Interleave, duration : 42 ms (1.00 video frame)
Interleave, preload duration : 500 ms
Service kind : Complete Main
Audio #2
ID : 2
Format : AC-3
Format/Info : Audio Coding 3
Codec ID : 2000
Duration : 46 min 40 s
Bit rate mode : Constant
Bit rate : 192 kb/s
Channel(s) : 2 channels
Channel positions : Front: L R
Sampling rate : 48.0 kHz
Frame rate : 31.250 FPS (1536 SPF)
Bit depth : 16 bits
Compression mode : Lossy
Stream size : 64.1 MiB (9%)
Alignment : Split accross interleaves
Interleave, duration : 42 ms (1.00 video frame)
Interleave, preload duration : 500 ms
Service kind : Complete Main
Audio #3
ID : 3
Format : AC-3
Format/Info : Audio Coding 3
Codec ID : 2000
Duration : 46 min 40 s
Bit rate mode : Constant
Bit rate : 192 kb/s
Channel(s) : 2 channels
Channel positions : Front: L R
Sampling rate : 48.0 kHz
Frame rate : 31.250 FPS (1536 SPF)
Bit depth : 16 bits
Compression mode : Lossy
Stream size : 64.1 MiB (9%)
Alignment : Split accross interleaves
Interleave, duration : 42 ms (1.00 video frame)
Interleave, preload duration : 500 ms
Service kind : Complete Main

Когда раздача ведётся путём добавления новых серий, при каждом добавлении создётся новый торрент. Чтобы начать докачку новой серии, пользователям необходимо сделать следующее:
(1) остановить скачивание,
(2) удалить старый торрент у себя из клиента (старые серии удалять не надо),
(3) скачать новый торрент и запустить его у себя в клиенте вместо старого, при этом указать клиенту путь в старую папку, куда и должно происходить скачивание новых серий.
Ваш клиент при этом должен произвести хеширование (проверку) старой папки (если не производит сам - помогите ему сделать это), и будет докачивать только те серии, которых у вас ещё нет. Старые серии при этом не удаляются, а продолжают раздаваться!
Eсли вы уже удалили старые серии, то предотвратить повторную закачку старых серий можно, отжав галочку в соответсвующих местах при запуске нового торрента. По возможности, желательно не удалять старые серии как можно дольше, чтобы релизёр не столько продолжал раздавать старые серии, а смог сконцентрироваться на новых.

pb.wtf



Скачать Миротворец через торрент https://i116.fastpic.org/big/2022/0218/19/2752f29d03a7680a35a73cc919358c19.jpeg Скачать, смотреть онлайн Миротворец бесплантно в хорошем качестве Описание: Спин-офф фильма «Отряд самоубийц» 2021 года. Сериал рассказывает о происхождении Миротворца и его миссиях. Миротворец — ... 9.4 10 12
Торрент: Зарегистрирован [2022-02-18 14:45] · скачан: 138 раз
Статус: √ проверено
Размер: 5.32 GB
Как cкачать? Как скачать Миротворец через торрент | UTorrent

% Раздел Тема Автор DL S | L
Наши сериалы [ 4.54 GB ] Миротворец / Peacemaker / Сезон: 1 / Серии: 1-8 из 8 [2022 WEB-DLRip] MVO [LostFilm] bober100 Скачать
3 | 1
Зарубежные сериалы [ 10.08 GB ] Миротворец / Peacemaker / Сезон: 1 / Серии: 1-8 из 8 [2022 WEB-DLR 720p] MVO [LostFilm] bober100 Скачать
5 | 1
Зарубежные сериалы [ 21.81 GB ] Миротворец / Peacemaker / Сезон: 1 / Серии: 1-8 из 8 [2022 WEB-DLR 1080p] MVO [Novamedia] bober100 Скачать
7 | 0
Зарубежные сериалы [ 10.39 GB ] Миротворец / Peacemaker / Сезон: 1 / Серии: 1-8 из 8 [2022 WEB-DL 1080p] [MVO] + [Ukr MVO] killermax2013 Скачать
5 | 1
Зарубежные сериалы [ 21.81 GB ] Миротворец / Peacemaker / Сезон: 1 / Серии: 1-8 из 8 [2022 WEB-DLR 1080p] MVO [LostFilm] bober100 Скачать
1 | 0
Зарубежные сериалы [ 20.66 GB ] Миротворец / Peacemaker / Сезон: 1 / Серии: 1-7 из 8 [2022 WEB-DLR 1080p] 2xMVO [LostFilm HDrezka Studio] bober100 Скачать
3 | 0
Зарубежные сериалы [ 23.05 GB ] Миротворец / Peacemaker / Сезон: 1 / Серии: 1-8 из 8 [2022 WEB-DLR 1080p] MVO [HDRezka Studio] bober100 Скачать
3 | 0


Последний раз редактировалось: bober100 (2022-02-18 14:45), всего редактировалось 1 раз

28-11-2019 20:33  

Отключить всю рекламу на сайте

30-01-2022 15:09 Миротворец Скачать торрент  

Где звук?халтурщик,pb.wtf



    Дорогой пользователь! Огромная просьба, поблагодарите релизера, оцените раздачу и оставьте свои комментарий, если Вы скачали Миротворец через торрент бесплатно!
    Комментировать посты могут только пользователи прошедшие не сложную регистрацию
    Показать сообщения:    

    Миротворец через торрент
    Скачать бесплатно Миротворец
    Миротворец скачать торрент
    Миротворец смотреть онлайн
    Cкачать фильм Миротворец бесплатно
    Миротворец скачать торрент в хорошем качестве
    Миротворец смотреть онлайн бесплатно в хорошем качестве


    Вы не можете начинать темы
    Вы не можете отвечать на сообщения
    Вы не можете редактировать свои сообщения
    Вы не можете удалять свои сообщения
    Вы не можете голосовать в опросах
    Вы не можете прикреплять файлы к сообщениям
    Вы можете скачивать файлы