Всегда рабочее зеркало без VPN и Proxy просто перед .vidak.icu напиши любое слово или цифру, Пример http://gaof.vidak.icu

MVO

Лицензия

1 сезон

1

1 сезон

iTunes

1 сезон

13

1 сезон

Deluxe

pack

Рекомендуем

Repack

30

ВАЖНО

RePack

MK11

RePack

jed

RePack

fifa19

RePack

RDR2

RePack

NEED FOR SPEED™ PAYBACK

Кинопоиск HD

6 сезон

 Острые козырьки 6 сезон

Все сериалы

все сериалы на PB.wtf

RePack

FAR CRY 5
  
Magnet ссылка

Миротворец / Peacemaker / Сезон: 1 / Серии: 1-8 из 8 (Джеймс Ганн, Брэд Андерсон) [2022, Фантастика, фэнтези, боевик, комедия, криминал, приключения, WEB-DLRip] MVO [LostFilm] pb.wtf

Миротворец через торрент pb.wtf

Раздают: 1 [ 0 KB/s ]
Размер: 4.54 GB | Добавлен: 2 мес. 21 д. назад | Торрент скачан:82 раза
Смотреть онлайн Миротворец | Скачать    Ребята, помогите собрать деньги на оплату серверов!!!

16-01-2022 03:24 Миротворец Скачать торрент  

Миротворец
Peacemaker

Год выпуска: 2022
Страна: США
Выпущено: DC Entertainment, Safran Company, The, Troll Court Entertainment, Warner Bros. Television
Жанр: Фантастика, фэнтези, боевик, комедия, криминал, приключения
Продолжительность: ~ 00:47:00 серия
Перевод: Профессиональный (многоголосый, закадровый) | LostFilm
Субтитры: Русские, английские

Режиссер: Джеймс Ганн, Брэд Андерсон

rating

В ролях: Джон Сина, Дженнифер Холлэнд, Фредди Строма, Роберт Патрик, Кристофер Хейердал, Стив Эйджи, Даниэль Брукс, Чаквуди Ивуджи, Нют Ле, Локлин Манро

Описание: Спин-офф фильма «Отряд самоубийц: Миссия навылет» (2021), действие которого разворачивается в расширенной вселенной DC. История происхождения супергероя Кристофера Смита, известного как Миротворец. Заслуживший свой титул, он верит, что мир и свободу можно достигнуть любыми способами, даже если для этого придётся убить множество плохих парней.

Качество: WEB-DLRip
Формат: AVI

Видео: 720x304, XviD ~1500 kbps avg, 0.29 bit/pixel
Аудио#1 Rus: 48 kHz, MPEG Layer 3, 2 ch, ~128.00 kbps avg
Аудио#2 Eng: 48 kHz, MPEG Layer 3, 2 ch, ~128.00 kbps avg
скриншот  скриншот  скриншот  скриншот  

скриншот  скриншот  скриншот  скриншот  

Общее
Полное имя : D:Peacemaker\Peacemaker.s01e01.LostFilm.avi
Формат : AVI
Формат/Информация : Audio Video Interleave
Размер файла : 624 Мбайт
Продолжительность : 46 м. 40 с.
Общий поток : 1 870 Кбит/сек
Программа кодирования : VirtualDubMod 1.5.10.2 (build 2540/release)
Библиотека кодирования : VirtualDubMod build 2540/release

Видео
Идентификатор : 0
Формат : MPEG-4 Visual
Профиль формата : Advanced [email protected]
Настройки формата : BVOP1
Параметр BVOP формата : 1
Параметр QPel формата : Нет
Параметр GMC формата : Без точки перехода
Параметр матрицы формата : Default (H.263)
Идентификатор кодека : XVID
Идентификатор кодека/Подсказка : XviD
Продолжительность : 46 м. 40 с.
Битрейт : 1 529 Кбит/сек
Ширина : 720 пикселей
Высота : 400 пикселей
Соотношение сторон : 16:9
Частота кадров : 23,976 (24000/1001) кадра/сек
Цветовое пространство : YUV
Субдискретизация насыщенности : 4:2:0
Битовая глубина : 8 бит
Тип развёртки : Прогрессивная
Метод сжатия : С потерями
Бит/(Пиксели*Кадры) : 0.221
Размер потока : 511 Мбайт (82%)
Библиотека кодирования : XviD 69

Аудио #1
Идентификатор : 1
Формат : MPEG Audio
Версия формата : Version 1
Профиль формата : Layer 3
Настройки формата : Joint stereo / MS Stereo
Идентификатор кодека : 55
Идентификатор кодека/Подсказка : MP3
Продолжительность : 46 м. 40 с.
Вид битрейта : Постоянный
Битрейт : 128 Кбит/сек
Каналы : 2 канала
Частота : 48,0 КГц
Метод сжатия : С потерями
Размер потока : 42,7 Мбайт (7%)
Выравнивание : Разделение по промежуткам

Аудио #2
Идентификатор : 2
Формат : MPEG Audio
Версия формата : Version 1
Профиль формата : Layer 3
Настройки формата : Joint stereo / MS Stereo
Идентификатор кодека : 55
Идентификатор кодека/Подсказка : MP3
Продолжительность : 46 м. 40 с.
Вид битрейта : Постоянный
Битрейт : 128 Кбит/сек
Каналы : 2 канала
Частота : 48,0 КГц
Метод сжатия : С потерями
Размер потока : 42,7 Мбайт (7%)
Выравнивание : Разделение по промежуткам

Когда раздача ведётся путём добавления новых серий, при каждом добавлении создётся новый торрент. Чтобы начать докачку новой серии, пользователям необходимо сделать следующее:
(1) остановить скачивание,
(2) удалить старый торрент у себя из клиента (старые серии удалять не надо),
(3) скачать новый торрент и запустить его у себя в клиенте вместо старого, при этом указать клиенту путь в старую папку, куда и должно происходить скачивание новых серий.
Ваш клиент при этом должен произвести хеширование (проверку) старой папки (если не производит сам - помогите ему сделать это), и будет докачивать только те серии, которых у вас ещё нет. Старые серии при этом не удаляются, а продолжают раздаваться!
Eсли вы уже удалили старые серии, то предотвратить повторную закачку старых серий можно, отжав галочку в соответсвующих местах при запуске нового торрента. По возможности, желательно не удалять старые серии как можно дольше, чтобы релизёр не столько продолжал раздавать старые серии, а смог сконцентрироваться на новых.

pb.wtf



Скачать Миротворец через торрент https://i5.imageban.ru/out/2022/01/11/f73b8d045f383e61a57aa8fc99966bc8.jpg Скачать, смотреть онлайн Миротворец бесплантно в хорошем качестве Описание: Спин-офф фильма «Отряд самоубийц: Миссия навылет» (2021), действие которого разворачивается в расширенной вселенной DC. История ... 8.9 10 8
Торрент: Зарегистрирован [2022-04-15 10:15] · скачан: 82 раз
Статус: √ проверено
Размер: 4.54 GB
Как cкачать? Как скачать Миротворец через торрент | UTorrent

% Раздел Тема Автор DL S | L
Зарубежные сериалы [ 10.08 GB ] Миротворец / Peacemaker / Сезон: 1 / Серии: 1-8 из 8 [2022 WEB-DLR 720p] MVO [LostFilm] bober100 Скачать
1 | 0
Зарубежные сериалы [ 21.81 GB ] Миротворец / Peacemaker / Сезон: 1 / Серии: 1-8 из 8 [2022 WEB-DLR 1080p] MVO [Novamedia] bober100 Скачать
1 | 0
Зарубежные сериалы [ 10.39 GB ] Миротворец / Peacemaker / Сезон: 1 / Серии: 1-8 из 8 [2022 WEB-DL 1080p] [MVO] + [Ukr MVO] killermax2013 Скачать
4 | 0
Зарубежные сериалы [ 5.32 GB ] Миротворец / Peacemaker / Сезон: 1 / Серии: 1-8 из 8 [2022 WEB-DLRip] MVO [HDRezka Studio] bober100 Скачать
1 | 0
Зарубежные сериалы [ 21.81 GB ] Миротворец / Peacemaker / Сезон: 1 / Серии: 1-8 из 8 [2022 WEB-DLR 1080p] MVO [LostFilm] bober100 Скачать
2 | 0
Зарубежные сериалы [ 20.66 GB ] Миротворец / Peacemaker / Сезон: 1 / Серии: 1-7 из 8 [2022 WEB-DLR 1080p] 2xMVO [LostFilm HDrezka Studio] bober100 Скачать
2 | 0
Зарубежные сериалы [ 23.05 GB ] Миротворец / Peacemaker / Сезон: 1 / Серии: 1-8 из 8 [2022 WEB-DLR 1080p] MVO [HDRezka Studio] bober100 Скачать
2 | 0

28-11-2019 20:33  

Отключить всю рекламу на сайте

15-04-2022 10:30 Миротворец Скачать торрент  

фильм бомбаpb.wtf



    Дорогой пользователь! Огромная просьба, поблагодарите релизера, оцените раздачу и оставьте свои комментарий, если Вы скачали Миротворец через торрент бесплатно!
    Комментировать посты могут только пользователи прошедшие не сложную регистрацию
    Показать сообщения:    

    Миротворец через торрент
    Скачать бесплатно Миротворец
    Миротворец скачать торрент
    Миротворец смотреть онлайн
    Cкачать фильм Миротворец бесплатно
    Миротворец скачать торрент в хорошем качестве
    Миротворец смотреть онлайн бесплатно в хорошем качестве


    Вы не можете начинать темы
    Вы не можете отвечать на сообщения
    Вы не можете редактировать свои сообщения
    Вы не можете удалять свои сообщения
    Вы не можете голосовать в опросах
    Вы не можете прикреплять файлы к сообщениям
    Вы можете скачивать файлы