Всегда рабочее зеркало без VPN и Proxy просто перед .vidak.icu напиши любое слово или цифру, Пример http://glq4.vidak.icu

MVO

Лицензия

1 сезон

1

1 сезон

iTunes

1 сезон

13

1 сезон

Deluxe

pack

Рекомендуем

Repack

30

ВАЖНО

RePack

MK11

RePack

jed

RePack

fifa19

RePack

RDR2

RePack

NEED FOR SPEED™ PAYBACK

Кинопоиск HD

6 сезон

 Острые козырьки 6 сезон

Все сериалы

все сериалы на PB.wtf

RePack

FAR CRY 5
  
Magnet ссылка

Вечные / Eternals (Хлоя Чжао) [2021, Фантастика, фэнтези, боевик, драма, приключения, BDRip 1080p] DUB (rus, ukr) [iTunes] +MVO [HDRezka Studio] pb.wtf

Вечные через торрент pb.wtf

Раздают: 1 [ 0 KB/s ]
Размер: 14.87 GB | Добавлен: 5 мес. 11 д. назад | Торрент скачан:300 раз
Смотреть онлайн Вечные | Скачать    Ребята, помогите собрать деньги на оплату серверов!!!

16-01-2022 07:27 Вечные Скачать торрент  

Вечные
Eternals

Год выпуска: 2021
Страна: США
Выпущено: Marvel Studios, TSG Entertainment
Жанр: Фантастика, фэнтези, боевик, драма, приключения
Продолжительность: 02:35:50
Перевод:
Дублированный | iTunes
Профессиональный (многоголосый, закадровый) | HDRezka Studio
Субтитры: Русские (Forced, Full), украинские (Forced), английские

Режиссер: Хлоя Чжао

rating

В ролях: Джемма Чан, Ричард Мэдден, Анджелина Джоли, Сальма Хайек, Кит Харингтон, Кумэйл Нанджиани, Лиа МакХью, Брайан Тайри Генри, Лорен Ридлофф, Барри Кеоган

Описание: Много тысячелетий назад с планеты Олимпия на Землю была отправлена группа сверхлюдей, обладающих суперспособностями, — Вечные. С доисторических времён они защищали человечество от нападений ужасных чудовищ девиантов, но любое другое вмешательство в развитие цивилизации им было запрещено.

Начало XXI века. Уже несколько столетий прошло с тех пор, как был уничтожен последний девиант, когда после странного землетрясения внезапно объявляется новый монстр. Теперь живущим в разных уголках планеты Вечным снова придётся сплотить силы, чтобы противостоять новой угрозе.

Качество: BDRip 1080p
Формат: MKV

Видео: MPEG-4 AVC, 12.0 Мбит/с, 1920x804, 23.976 fps
Аудио #01: 48 kHz, AC3, 5.1, 384 Kbps | iTunes | RUS |
Аудио #02: 48 kHz, AC3, 5.1, 448 Kbps | HDRezka Studio | RUS |
Аудио #03: 48 kHz, AC3, 2.0, 192 Kbps | LeDoyen | RUS |
Аудио #02: 48 kHz, AC3, 5.1, 640 Kbps | Оригинал | ENG |
скриншот  скриншот  скриншот  скриншот  

Complete name : Vechnyie.2021.BDRip.1080p.ELEKTRI4KA.UNIONGANG.mkv
Format : Matroska
Format version : Version 4
File size : 14.9 GiB
Duration : 2 h 35 min
Overall bit rate : 13.7 Mb/s
Movie name : Vechnyie.2021.BDRip.1080p.ELEKTRI4KA.UNIONGANG.m
Encoded date : UTC 2022-01-26 13:47:42
Writing application : mkvmerge v8.3.0 ('Over the Horizon') 32bit
Writing library : libebml v1.3.1 + libmatroska v1.4.2

Video
ID : 1
Format : AVC
Format/Info : Advanced Video Codec
Format profile : [email protected]
Format settings : CABAC / 5 Ref Frames
Format settings, CABAC : Yes
Format settings, Reference frames : 5 frames
Codec ID : V_MPEG4/ISO/AVC
Duration : 2 h 35 min
Bit rate : 12.0 Mb/s
Width : 1 920 pixels
Height : 804 pixels
Display aspect ratio : 2.40:1
Frame rate mode : Constant
Frame rate : 23.976 (24000/1001) FPS
Color space : YUV
Chroma subsampling : 4:2:0
Bit depth : 8 bits
Scan type : Progressive
Bits/(Pixel*Frame) : 0.324
Stream size : 13.1 GiB (88%)
Writing library : x264 core 157 r2958 57baac4
Encoding settings : cabac=1 / ref=5 / deblock=1:-3:-3 / analyse=0x3:0x113 / me=umh / subme=10 / psy=1 / psy_rd=1.00:0.15 / mixed_ref=1 / me_range=32 / chroma_me=1 / trellis=2 / 8x8dct=1 / cqm=0 / deadzone=21,11 / fast_pskip=0 / chroma_qp_offset=-3 / threads=25 / lookahead_threads=4 / sliced_threads=0 / nr=1 / decimate=0 / interlaced=0 / bluray_compat=0 / constrained_intra=0 / bframes=8 / b_pyramid=2 / b_adapt=2 / b_bias=0 / direct=3 / weightb=1 / open_gop=0 / weightp=2 / keyint=240 / keyint_min=24 / scenecut=40 / intra_refresh=0 / rc=2pass / mbtree=0 / bitrate=12000 / ratetol=1.0 / qcomp=0.60 / qpmin=0 / qpmax=69 / qpstep=4 / cplxblur=20.0 / qblur=0.5 / ip_ratio=1.40 / pb_ratio=1.30 / aq=1:1.00
Language : English
Default : Yes
Forced : No

Audio #1
ID : 2
Format : AC-3
Format/Info : Audio Coding 3
Commercial name : Dolby Digital
Codec ID : A_AC3
Duration : 2 h 35 min
Bit rate mode : Constant
Bit rate : 384 kb/s
Channel(s) : 6 channels
Channel layout : L R C LFE Ls Rs
Sampling rate : 48.0 kHz
Frame rate : 31.250 FPS (1536 SPF)
Compression mode : Lossy
Stream size : 428 MiB (3%)
Title : DUB (iTunes)
Language : Russian
Service kind : Complete Main
Default : Yes
Forced : Yes

Audio #2
ID : 3
Format : AC-3
Format/Info : Audio Coding 3
Commercial name : Dolby Digital
Codec ID : A_AC3
Duration : 2 h 35 min
Bit rate mode : Constant
Bit rate : 448 kb/s
Channel(s) : 6 channels
Channel layout : L R C LFE Ls Rs
Sampling rate : 48.0 kHz
Frame rate : 31.250 FPS (1536 SPF)
Compression mode : Lossy
Stream size : 499 MiB (3%)
Title : MVO (HDRezka studio)
Language : Russian
Service kind : Complete Main
Default : No
Forced : No

Audio #3
ID : 4
Format : AC-3
Format/Info : Audio Coding 3
Commercial name : Dolby Digital
Codec ID : A_AC3
Duration : 2 h 35 min
Bit rate mode : Constant
Bit rate : 192 kb/s
Channel(s) : 2 channels
Channel layout : L R
Sampling rate : 48.0 kHz
Frame rate : 31.250 FPS (1536 SPF)
Compression mode : Lossy
Stream size : 214 MiB (1%)
Title : DUB (LeDoyen)
Language : Ukrainian
Service kind : Complete Main
Default : No
Forced : No

Audio #4
ID : 5
Format : AC-3
Format/Info : Audio Coding 3
Commercial name : Dolby Digital
Codec ID : A_AC3
Duration : 2 h 35 min
Bit rate mode : Constant
Bit rate : 640 kb/s
Channel(s) : 6 channels
Channel layout : L R C LFE Ls Rs
Sampling rate : 48.0 kHz
Frame rate : 31.250 FPS (1536 SPF)
Compression mode : Lossy
Stream size : 713 MiB (5%)
Title : Original
Language : English
Service kind : Complete Main
Default : No
Forced : No

Text #1
ID : 6
Format : UTF-8
Codec ID : S_TEXT/UTF8
Codec ID/Info : UTF-8 Plain Text
Duration : 2 h 35 min
Bit rate : 4 b/s
Count of elements : 117
Stream size : 5.07 KiB (0%)
Title : Forced
Language : Russian
Default : Yes
Forced : Yes

Text #2
ID : 7
Format : UTF-8
Codec ID : S_TEXT/UTF8
Codec ID/Info : UTF-8 Plain Text
Duration : 2 h 33 min
Bit rate : 65 b/s
Count of elements : 1542
Stream size : 73.6 KiB (0%)
Title : Full
Language : Russian
Default : No
Forced : No

Text #3
ID : 8
Format : UTF-8
Codec ID : S_TEXT/UTF8
Codec ID/Info : UTF-8 Plain Text
Duration : 2 h 35 min
Bit rate : 5 b/s
Count of elements : 139
Stream size : 6.14 KiB (0%)
Title : Forced
Language : Ukrainian
Default : No
Forced : No

Text #4
ID : 9
Format : UTF-8
Codec ID : S_TEXT/UTF8
Codec ID/Info : UTF-8 Plain Text
Duration : 2 h 32 min
Bit rate : 1 b/s
Count of elements : 81
Stream size : 1.78 KiB (0%)
Title : Forced
Language : English
Default : No
Forced : No

Text #5
ID : 10
Format : UTF-8
Codec ID : S_TEXT/UTF8
Codec ID/Info : UTF-8 Plain Text
Duration : 2 h 33 min
Bit rate : 42 b/s
Count of elements : 1786
Stream size : 47.2 KiB (0%)
Title : Full
Language : English
Default : No
Forced : No

Text #6
ID : 11
Format : UTF-8
Codec ID : S_TEXT/UTF8
Codec ID/Info : UTF-8 Plain Text
Duration : 2 h 33 min
Bit rate : 52 b/s
Count of elements : 2212
Stream size : 59.0 KiB (0%)
Title : SDH
Language : English
Default : No
Forced : No

Menu
00:00:00.000 : :Глава 01
00:06:43.194 : :Глава 02
00:20:22.888 : :Глава 03
00:31:11.703 : :Глава 04
00:35:04.436 : :Глава 05
00:43:01.412 : :Глава 06
00:49:29.008 : :Глава 07
00:55:50.097 : :Глава 08
01:02:29.537 : :Глава 09
01:07:56.531 : :Глава 10
01:10:39.569 : :Глава 11
01:18:58.275 : :Глава 12
01:24:36.780 : :Глава 13
01:29:56.516 : :Глава 14
01:36:03.049 : :Глава 15
01:42:47.578 : :Глава 16
01:46:27.881 : :Глава 17
01:51:51.163 : :Глава 18
01:55:57.951 : :Глава 19
02:01:46.132 : :Глава 20
02:06:30.249 : :Глава 21
02:11:41.894 : :Глава 22
02:16:32.351 : :Глава 23
02:23:10.665 : :Глава 24
02:25:45.028 : :Глава 25
02:27:56.493 : :Глава 26
02:34:27.175 : :Глава 27

pb.wtf



Скачать Вечные через торрент http://b.radikal.ru/b21/2201/24/021d7f029304.jpg Скачать, смотреть онлайн Вечные бесплантно в хорошем качестве Описание: Много тысячелетий назад с планеты Олимпия на Землю была отправлена группа сверхлюдей, обладающих суперспособностями, — Вечные. С ... 9.4 10 39
Торрент: Зарегистрирован [2022-01-26 17:07] · скачан: 300 раз
Статус: √ проверено
Размер: 14.87 GB
Как cкачать? Как скачать Вечные через торрент | UTorrent

% Раздел Тема Автор DL S | L
Фильмы (WEB-DL 720p, 1080p) [ 12.06 GB ] Вечные / Eternals [2021 WEB-DL 1080p] [Локализованная версия] DUB [Невафильм] bober100 Скачать
3 | 0
Фильмы 2021 [DVDrip, WEB-DLRip, HDrip] (DUB, MVO) [ 2.18 GB ] Вечные / Eternals [2021 WEB-DLRip] [Локализованная версия] DUB [Невафильм] bober100 Скачать
2 | 0
3D Фильмы [ 15.72 GB ] Вечные в 3Д / Eternals 3D [2021 BDRip 1080p] OverUnder / Вертикальная стереопара () serega768 Скачать
1 | 0
Фильмы 2021 [DVDrip, WEB-DLRip, HDrip] (DUB, MVO) [ 2.12 GB ] Вечные / Eternals [2021 BDRip] - Twi7ter Скачать
33 | 0
Фильмы (WEB-DL 720p, 1080p) [ 4.82 GB ] Вечные / Eternals [2021 WEB-DL 720p] [IMAX Edition] bober100 Скачать
6 | 0
Ultra HD (UHD: 2K, 4K, 8K) — видео сверхвысокой чёткости [ 46.57 GB ] Вечные / Eternals [2021 UHD BDRemux 2160p] bober100 Скачать
3 | 0
Фильмы (WEB-DL 720p, 1080p) [ 8.39 GB ] Вечные / Eternals [2021 WEB-DL 1080p] [IMAX Edition] bober100 Скачать
5 | 0


Последний раз редактировалось: bober100 (2022-01-26 17:28), всего редактировалось 3 раз(а)

28-11-2019 20:33  

Отключить всю рекламу на сайте

16-01-2022 22:14 Вечные Скачать торрент  

Фильм кайф, жаль я не посмотрел его в кинотеатре!
Джон Сноу как всегда хорош)pb.wtf



17-01-2022 15:50 Вечные Скачать торрент  

Будем посмотретьpb.wtf



17-01-2022 19:46 Вечные Скачать торрент  

Вообще, мне нравятся фильмы по вселенной Марвел, но это невероятное говнище.
Имхо, самый плохой их фильм.pb.wtf



18-01-2022 17:09 Вечные Скачать торрент  

[email protected] писал(а):

Вообще, мне нравятся фильмы по вселенной Марвел, но это невероятное говнище.
Имхо, самый плохой их фильм.

Я согласен. Но мне кажется это вообще самый плохой фильм про супер-героев. Настолько всё нелогично, просто ужас. Даже сложно сказать, что именно не понравилось. Думаю далеко не худший момент "супер-герой" чернойкожий гей, который замужем за арабом. Я не гомофоб, но это было просто лишнее как мне кажется.pb.wtf



19-01-2022 16:27 Вечные Скачать торрент  

посмотрел обзор ( не Бэда). Зато теперь ясно 2 вещи-
1) определенно, ЭТО я смотреть никогда не буду.
2) ЭТО такое потому что снимала молодая левая не имеющая к марвел НИКАКОГО отношения азиатка сторонница повесточки

когда майкрософт купит марвел?pb.wtf



22-01-2022 17:10 Вечные Скачать торрент  

офигеть ,черножопый петушок рекламирует толерантность ,и джоли в той же компашке)Ну пусть вникают в подробности вопроса pb.wtf



27-01-2022 19:17 Вечные Скачать торрент  

Офигеть, у них компашка вечных. Глухонемая, негр-гей, недовыросший подросток, баба у которой регулярно крышу сносит... Не хватает безногого вечного в инвалидной коляске. Это не вечные, это Увечные. pb.wtf



29-01-2022 12:30 Вечные Скачать торрент  

по мне так хрень редкостнаяpb.wtf



    Дорогой пользователь! Огромная просьба, поблагодарите релизера, оцените раздачу и оставьте свои комментарий, если Вы скачали Вечные через торрент бесплатно!
    Комментировать посты могут только пользователи прошедшие не сложную регистрацию
    Показать сообщения:    

    Вечные через торрент
    Скачать бесплатно Вечные
    Вечные скачать торрент
    Вечные смотреть онлайн
    Cкачать фильм Вечные бесплатно
    Вечные скачать торрент в хорошем качестве
    Вечные смотреть онлайн бесплатно в хорошем качестве


    Вы не можете начинать темы
    Вы не можете отвечать на сообщения
    Вы не можете редактировать свои сообщения
    Вы не можете удалять свои сообщения
    Вы не можете голосовать в опросах
    Вы не можете прикреплять файлы к сообщениям
    Вы можете скачивать файлы