Доктор Стрэндж

Лицензия

Добыча

Дубляж

Уэнсдэй

1 сезон

Тор

Дубляж

В эфире

Дубляж

Там, где раки поют

MVO

Властелин колец

1 сезон

Deluxe

pack

Рекомендуем

30

Пиратка

ВАЖНО

ВАЖНО

Ghostwire

Пиратка

jed

RePack

nioh2

RePack

RDR2

RePack

NEED FOR SPEED™ PAYBACK

RePack

скачать торрент

Кинопоиск HD

Острые козырьки 6 сезон

6 сезон

FAR CRY 6

RePack

скачать торрент

Лицензия

скачать торрент

MVO

1

1 сезон

скачать торрент

1 сезон

скачать торрент

Лицензия

  

Проклятая волна в 3Д / Плотина 999 / Dam999 3D (Сохан Рой / Sohan Roy) [2011, Фантастика, триллер, драма, приключения, BDRip, 1080p] OverUnder / Вертикальная стереопара (MVO)

Проклятая волна в 3Д через торрент pb.wtf

Размер: 17.98 GB | Добавлен: 10 мес. назад | Торрент скачан:11 раз
Смотреть онлайн | Скачать   

16-01-2022 07:27 Проклятая волна в 3Д Скачать торрент  

Проклятая волна / Плотина 999 / Dam999

Год выпуска: 2011
Страна: Индия, ОАЭ, Сингапур
Жанр: Фантастика, триллер, драма, приключения
Продолжительность: 01:50:17

Перевод: Профессиональный (многоголосый закадровый)
Русские субтитры: есть
Режиссер: Сохан Рой / Sohan Roy

В ролях: Джошуа Фредерик Смит, Мегха Бурман, Линда Арсенио, Раджит Капур, Вимала Менон, Ашиш Видьятхи

Описание: Мэр Джон Браун решает возвести новую дамбу для замены столетней плотины, построенной еще его дедом во времена колониализма в Индии, дабы избавить 2,5-миллионный город от угрозы наводнения, но гибнет во время акций протеста. Его зять, коррумпированный политик, становится следующим мэром и объявляет об открытии новой плотины, которую он построил без соблюдения каких-либо мер безопасности. Астролог Шанкаран предсказывает катастрофу, и группа моряков объединяется, чтобы попытаться избежать этого и спасти людей.

Сэмпл: http://sendfile.su/1634182

Качество: BDrip, 1080p
Контейнер: MKV
Формат 3D: OverUnder / Вертикальная стереопара
Порядок ракурсов: левый ракурс первый
Видео кодек: x264
Аудио кодек: AC3
Видео: AVC / [email protected] / 23,976 fps / 1920х2160 / 21,9 Мбит/сек
Аудио: Русский / AC3 / 48 KHz / 5.1 ch / 256 Кбит/сек(MVO)
Аудио 2: Английский / AC3 / 48 KHz / 5.1 ch / 640 Кбит/сек
Субтитры: Русские Форсированные

ВНИМАНИЕ ! На встроенных ТВ-плеерах работать не будет!!!

ТВ Samsung в названии которого есть надпись Ultra HD , и LG Ultra HD 800 серии, LG C6P, Xiaomi Mi TV 2, GRUNDIG VLE 8474 BL, Samsung UE48H6200AK, SUPRA STV-LC42ST960UL00 воспроизводят полные стереопары встроенными плеерами
Железные плееры на которых воспроизводятся полные стереопары:Popcorn C-200, Popcorn a-400, Dune HD Smart D1 , Dune HD DUO , Dune HD Smart H1 , Dune HD Smart B1 , Dune HD Max , Dune HD TV-303D, Dune HD TV-102, Dune HD Base 3D, Philips HMP7001, Aura HD, MECOOL BB2, Zidoo x9s, Lake I Cloud, MiBox 3
Чтобы изображение было на весь экран в плеере выставляем, если рип 1920х1600 - то выставляем 2.35:1 , если 1920х2160 - то выставляем 16:9
Общее
Уникальный идентификатор : 175121836488751840597325041629153060093 (0x83BF3D274DC0E692925D5FB42315E4FD)
Полное имя : F:\ISO\Dam999.Rip by SeRoGa00.mkv
Формат : Matroska
Версия формата : Version 2
Размер файла : 18,0 Гбайт
Продолжительность : 1 ч. 50 м.
Общий поток : 23,3 Мбит/сек
Дата кодирования : UTC 2022-01-02 05:52:21
Программа кодирования : mkvmerge v4.9.1 ('Ich will') сборка от Jul 11 2011 23:53:15
Библиотека кодирования : libebml v1.2.1 + libmatroska v1.1.1

Видео
Идентификатор : 1
Формат : AVC
Формат/Информация : Advanced Video Codec
Профиль формата : [email protected]
Параметр CABAC формата : Да
Параметр ReFrames формата : 4 кадра
Идентификатор кодека : V_MPEG4/ISO/AVC
Продолжительность : 1 ч. 50 м.
Битрейт : 21,9 Мбит/сек
Ширина : 1920 пикселей
Высота : 2160 пикселей
Соотношение сторон : 0,889
Частота кадров : 23,976 кадра/сек
Цветовое пространство : YUV
Субдискретизация насыщенности : 4:2:0
Битовая глубина : 8 бит
Тип развёртки : Прогрессивная
Бит/(Пиксели*Кадры) : 0.221
Размер потока : 16,9 Гбайт (94%)
Заголовок : Rip by SeRoGa00
Библиотека кодирования : x264 core 157 r2969 d4099dd
Настройки программы : cabac=1 / ref=4 / deblock=1:-3:-3 / analyse=0x3:0x113 / me=umh / subme=10 / psy=1 / psy_rd=1.00:0.15 / mixed_ref=1 / me_range=24 / chroma_me=1 / trellis=2 / 8x8dct=1 / cqm=0 / deadzone=21,11 / fast_pskip=1 / chroma_qp_offset=-3 / threads=12 / lookahead_threads=6 / sliced_threads=0 / nr=0 / decimate=0 / interlaced=0 / bluray_compat=0 / constrained_intra=0 / bframes=10 / b_pyramid=2 / b_adapt=2 / b_bias=0 / direct=3 / weightb=1 / open_gop=0 / weightp=2 / keyint=250 / keyint_min=23 / scenecut=40 / intra_refresh=0 / rc_lookahead=60 / rc=crf / mbtree=1 / crf=16.5 / qcomp=0.60 / qpmin=10 / qpmax=69 / qpstep=4 / vbv_maxrate=40000 / vbv_bufsize=40000 / crf_max=0.0 / nal_hrd=none / filler=0 / ip_ratio=1.40 / aq=1:1.00
Язык : English
Default : Да
Forced : Нет

Аудио #1
Идентификатор : 2
Формат : AC-3
Формат/Информация : Audio Coding 3
Расширение режима : CM (complete main)
Параметр Endianness формата : Big
Идентификатор кодека : A_AC3
Продолжительность : 1 ч. 50 м.
Вид битрейта : Постоянный
Битрейт : 256 Кбит/сек
Каналы : 6 каналов
Расположение каналов : Front: L C R, Side: L R, LFE
Частота : 48,0 КГц
Битовая глубина : 16 бит
Метод сжатия : С потерями
Размер потока : 202 Мбайт (1%)
Язык : Russian
Default : Да
Forced : Нет

Аудио #2
Идентификатор : 3
Формат : AC-3
Формат/Информация : Audio Coding 3
Расширение режима : CM (complete main)
Параметр Endianness формата : Big
Идентификатор кодека : A_AC3
Продолжительность : 1 ч. 50 м.
Вид битрейта : Постоянный
Битрейт : 640 Кбит/сек
Каналы : 6 каналов
Расположение каналов : Front: L C R, Side: L R, LFE
Частота : 48,0 КГц
Битовая глубина : 16 бит
Метод сжатия : С потерями
Размер потока : 506 Мбайт (3%)
Язык : English
Default : Нет
Forced : Нет

Текст
Идентификатор : 4
Формат : UTF-8
Идентификатор кодека : S_TEXT/UTF8
Идентификатор кодека/Информация : UTF-8 Plain Text
Default : Да
Forced : Нет

Меню
00:00:00.000 : en:00:00:00.000
00:05:28.745 : en:00:05:28.745
00:12:03.806 : en:00:12:03.806
00:24:01.899 : en:00:24:01.899
00:36:00.241 : en:00:36:00.241
00:49:35.097 : en:00:49:35.097
01:03:47.741 : en:01:03:47.741
01:14:33.469 : en:01:14:33.469
01:30:22.042 : en:01:30:22.042
01:38:35.034 : en:01:38:35.034
скриншот  

скриншот  

скриншот  

скриншот  

скриншот  

скриншот  

скриншот  

скриншот  



Скачать Проклятая волна в 3Д через торрент https://d.radikal.ru/d01/2201/22/5ddeef02d4c5.png Скачать, смотреть онлайн Проклятая волна в 3Д бесплантно в хорошем качестве Описание: Мэр Джон Браун решает возвести новую дамбу для замены столетней плотины, построенной еще его дедом во времена колониализма в ... 5 10 1
Торрент: Зарегистрирован [2022-01-16 07:27] · скачан: 11 раз
Статус: √ проверено
Размер: 17.98 GB
Как cкачать? Как скачать Проклятая волна в 3Д через торрент | UTorrent

28-11-2019 20:33  


Отключить вcю реклaмy на сайте, в т.ч. и в плеере онлайн просмотра!

    Дорогой пользователь! Огромная просьба, поблагодарите релизера, оцените раздачу и оставьте свои комментарий, если Вы скачали Проклятая волна в 3Д через торрент бесплатно!!
    Комментировать посты могут только пользователи прошедшие не сложную регистрацию
    Показать сообщения:    


    Проклятая волна в 3Д через торрент
    Скачать бесплатно Проклятая волна в 3Д
    Проклятая волна в 3Д скачать торрент
    Проклятая волна в 3Д смотреть онлайн
    Cкачать фильм Проклятая волна в 3Д бесплатно
    Проклятая волна в 3Д скачать торрент в хорошем качестве
    Проклятая волна в 3Д смотреть онлайн бесплатно в хорошем качестве
    Вы не можете начинать темы
    Вы не можете отвечать на сообщения
    Вы не можете редактировать свои сообщения
    Вы не можете удалять свои сообщения
    Вы не можете голосовать в опросах
    Вы не можете прикреплять файлы к сообщениям
    Вы можете скачивать файлы
    Проклятая волна в 3Д / Плотина 999 / Dam999 3D [2011, Фантастика, триллер, драма, приключения, BDRip, 1080p] OverUnder / Вертикальная стереопара смотреть онлайн, скачать торрент picoco.icu