Всегда рабочее зеркало без VPN и Proxy просто перед .vidak.icu напиши любое слово или цифру, Пример http://wjwc.vidak.icu

MVO

2 сезон

2 сезон

1

1 сезон

iTunes

2 сезон

13

1 сезон

Распродажа

pack

Рекомендуем

Пиратка

30

ВАЖНО

RePack

MK11

RePack

jed

RePack

fifa19

RePack

RDR2

RePack

NEED FOR SPEED™ PAYBACK

Кинопоиск HD

6 сезон

 Острые козырьки 6 сезон

Все сериалы

все сериалы на PB.wtf

RePack

FAR CRY 5

Anonymous, нам критически не хватает 5601 руб. на оплату серверов и переферии за Апрель, помоги нам пожалуйста, вся надежда только на тебя. В благодарность мы отключим тебе всю рекламу на сайте!

×
  
Magnet ссылка

Мистериум: Журнал 64 / Дело номер 64 / Journal 64 (Кристоффер Боэ) [2018, Триллер, криминал, детектив, BDRip-AVC] DUB [Лицензия Blu-ray RUS] pb.wtf

Мистериум: Журнал 64 через торрент pb.wtf

Раздают: 3 [ 0 KB/s ]
Размер: 2.38 GB | Добавлен: 3 мес. 30 д. назад | Торрент скачан:194 раза
Смотреть онлайн Мистериум: Журнал 64 | Скачать    Ребята, помогите собрать деньги на оплату серверов!!!

17-01-2022 03:39 Мистериум: Журнал 64 Скачать торрент  

Мистериум: Журнал 64 | Дело номер 64
Journal 64
Год выпуска: 2018
Страна: Дания, Германия
Студия: Film i Väst, Zentropa Entertainments
Жанр: Триллер, криминал, детектив
Продолжительность: 01:57:54
Перевод: Дублированный | Лицензия Blu-ray RUS
Субтитры: Русские (форсированные, полные), английские (полные), датские (полные)

Режиссер: Кристоффер Боэ

rating

В ролях: Николай Ли Каас, Фарес Фарес, Джохэнн Луиз Шмидт, Сёрен Пильмарк, Фанни Борнедаль, Клара Росагер, Луиза Скоу, Аманда Раделяк, Андерс Хове, Николас Бро

Описание: В копенгагенской квартире найдены замурованными три мумифицированных трупа, сидящих вокруг стола. За дело берётся отдел Q, специализирующийся на давних нераскрытых преступлениях. Расследование приводит детективов Карла Мёрка и Ассада в закрытое много лет назад женское учреждение на острове, куда раньше ссылали девушек, несоответствовавших общественной морали.

Качество: BDRip-AVC
Формат: MKV

Видео: 1024x428 (2.40:1), 24 fps, MPEG-4 AVC ~ 2000 Kbps avg, 0.190 bit/pixel
Аудио: AC3, 48 kHz, 6 ch, ~448.00 kbps avg | русский | Blu-ray RUS
Аудио: AC3, 48 kHz, 6 ch, ~448.00 kbps avg | датский |
скриншот  скриншот  скриншот  скриншот  скриншот  

Общее
Уникальный идентификатор : 219030938797218579710168588140531792095 (0xA4C7D30A6A6BFABE91B8E8F1EAF5B8DF)
Полное имя : Journal.64.2018.Lic.BDRip.DD.5.1.x264.MegaPeer.mkv
Формат : Matroska
Версия формата : Version 4
Размер файла : 2,38 Гбайт
Продолжительность : 1 ч. 57 м.
Общий поток : 2 894 Кбит/сек
Название фильма : Мистериум. Журнал 64 / Journal 64 (2018) от stillet@MegaPeer
Дата кодирования : UTC 2022-01-17 01:49:25
Программа кодирования : mkvmerge v15.0.0 ('Duel with the Devil') 64-bit
Библиотека кодирования : libebml v1.3.5 + libmatroska v1.4.5
Обложка : Yes
Attachments : cover.jpg

Видео
Идентификатор : 1
Формат : AVC
Формат/Информация : Advanced Video Codec
Профиль формата : High@L4.1
Настройки формата : CABAC / 11 Ref Frames
Параметр CABAC формата : Да
Параметр RefFrames формата : 11 кадров
Идентификатор кодека : V_MPEG4/ISO/AVC
Продолжительность : 1 ч. 57 м.
Битрейт : 2 000 Кбит/сек
Ширина : 1 024 пикселя
Высота : 428 пикселей
Соотношение сторон : 2,40:1
Режим частоты кадров : Постоянный
Частота кадров : 24,000 кадра/сек
Цветовое пространство : YUV
Субдискретизация насыщенности : 4:2:0
Битовая глубина : 8 бит
Тип развёртки : Прогрессивная
Бит/(Пиксели*Кадры) : 0.190
Размер потока : 1,64 Гбайт (69%)
Заголовок : stillet@MegaPeer
Библиотека кодирования : x264 core 161 r3018 db0d417
Настройки программы : cabac=1 / ref=11 / deblock=1:-3:-3 / analyse=0x3:0x113 / me=umh / subme=10 / psy=1 / psy_rd=1.00:0.00 / mixed_ref=1 / me_range=48 / chroma_me=1 / trellis=2 / 8x8dct=1 / cqm=0 / deadzone=21,11 / fast_pskip=0 / chroma_qp_offset=-2 / threads=12 / lookahead_threads=3 / sliced_threads=0 / nr=0 / decimate=0 / interlaced=0 / bluray_compat=0 / constrained_intra=0 / bframes=12 / b_pyramid=2 / b_adapt=2 / b_bias=0 / direct=3 / weightb=1 / open_gop=0 / weightp=2 / keyint=240 / keyint_min=24 / scenecut=40 / intra_refresh=0 / rc_lookahead=40 / rc=2pass / mbtree=0 / bitrate=2000 / ratetol=1.0 / qcomp=0.60 / qpmin=0 / qpmax=69 / qpstep=4 / cplxblur=20.0 / qblur=0.5 / vbv_maxrate=50000 / vbv_bufsize=62500 / nal_hrd=none / filler=0 / ip_ratio=1.40 / pb_ratio=1.30 / aq=1:1.10
Язык : English
Default : Да
Forced : Нет

Аудио #1
Идентификатор : 2
Формат : AC-3
Формат/Информация : Audio Coding 3
Коммерческое название : Dolby Digital
Идентификатор кодека : A_AC3
Продолжительность : 1 ч. 57 м.
Вид битрейта : Постоянный
Битрейт : 448 Кбит/сек
Каналы : 6 каналов
Channel layout : L R C LFE Ls Rs
Частота : 48,0 КГц
Частота кадров : 31,250 кадров/сек (1536 SPF)
Метод сжатия : С потерями
Размер потока : 378 Мбайт (15%)
Заголовок : DUB | Blu-ray RUS
Язык : Russian
Service kind : Complete Main
Default : Да
Forced : Нет

Аудио #2
Идентификатор : 3
Формат : AC-3
Формат/Информация : Audio Coding 3
Коммерческое название : Dolby Digital
Идентификатор кодека : A_AC3
Продолжительность : 1 ч. 57 м.
Вид битрейта : Постоянный
Битрейт : 448 Кбит/сек
Каналы : 6 каналов
Channel layout : L R C LFE Ls Rs
Частота : 48,0 КГц
Частота кадров : 31,250 кадров/сек (1536 SPF)
Метод сжатия : С потерями
Размер потока : 378 Мбайт (15%)
Язык : Danish
Service kind : Complete Main
Default : Нет
Forced : Нет

Текст #1
Идентификатор : 4
Формат : UTF-8
Идентификатор кодека : S_TEXT/UTF8
Идентификатор кодека/Информация : UTF-8 Plain Text
Продолжительность : 1 ч. 52 м.
Битрейт : 0 бит/сек
Count of elements : 12
Размер потока : 739 байт (0%)
Заголовок : Forced
Язык : Russian
Default : Да
Forced : Нет

Текст #2
Идентификатор : 5
Формат : UTF-8
Идентификатор кодека : S_TEXT/UTF8
Идентификатор кодека/Информация : UTF-8 Plain Text
Продолжительность : 1 ч. 53 м.
Битрейт : 76 бит/сек
Count of elements : 1000
Размер потока : 63,7 Кбайт (0%)
Заголовок : Full
Язык : Russian
Default : Нет
Forced : Нет

Текст #3
Идентификатор : 6
Формат : UTF-8
Идентификатор кодека : S_TEXT/UTF8
Идентификатор кодека/Информация : UTF-8 Plain Text
Продолжительность : 1 ч. 52 м.
Битрейт : 50 бит/сек
Count of elements : 1097
Размер потока : 41,4 Кбайт (0%)
Заголовок : Full
Язык : English
Default : Нет
Forced : Нет

Текст #4
Идентификатор : 7
Формат : UTF-8
Идентификатор кодека : S_TEXT/UTF8
Идентификатор кодека/Информация : UTF-8 Plain Text
Продолжительность : 1 ч. 56 м.
Битрейт : 50 бит/сек
Count of elements : 1010
Размер потока : 43,2 Кбайт (0%)
Заголовок : Full
Язык : Danish
Default : Нет
Forced : Нет

Меню
00:00:00.000 : da:Chapter 01
00:09:59.542 : da:Chapter 02
00:19:59.583 : da:Chapter 03
00:29:59.708 : da:Chapter 04
00:39:59.750 : da:Chapter 05
00:49:59.583 : da:Chapter 06
00:59:59.958 : da:Chapter 07
01:09:59.833 : da:Chapter 08
01:19:59.583 : da:Chapter 09
01:29:59.667 : da:Chapter 10
01:39:59.542 : da:Chapter 11
01:49:59.625 : da:Chapter 12

pb.wtf



Скачать Мистериум: Журнал 64 через торрент https://i116.fastpic.org/big/2021/1020/51/2c275898fe11a212a5a73910e1b34751.jpg Скачать, смотреть онлайн Мистериум: Журнал 64 бесплантно в хорошем качестве Описание: В копенгагенской квартире найдены замурованными три мумифицированных трупа, сидящих вокруг стола. За дело берётся отдел Q, ... 10 10 6
Торрент: Зарегистрирован [2022-01-17 03:39] · скачан: 194 раз
Статус: √ проверено
Размер: 2.38 GB
Как cкачать? Как скачать Мистериум: Журнал 64 через торрент | UTorrent

% Раздел Тема Автор DL S | L
Фильмы 2018 [DVDrip, WEB-DLRip, HDrip] (DUB, MVO) [ 1.46 GB ] Мистериум: Журнал 64 / Дело номер 64 / Journal 64 [2018 BDRip] DUB [ Blu-ray RUS] bober100 Скачать
2 | 0
Фильмы 2018 [DVDrip, WEB-DLRip, HDrip] (DUB, MVO) [ 2.18 GB ] Мистериум: Журнал 64 / Дело номер 64 / Journal 64 [2018 BDRip] DUB [ Blu-ray RUS] bober100 Скачать
1 | 0
Фильмы [HD 720p, 1080p] (Хороший звук DUB, MVO) [ 8.66 GB ] Мистериум: Журнал 64 / Дело номер 64 / Journal 64 [2018 BDRip 1080p] bober100 Скачать
4 | 0

28-11-2019 20:33  

Отключить всю рекламу на сайте

    Дорогой пользователь! Огромная просьба, поблагодарите релизера, оцените раздачу и оставьте свои комментарий, если Вы скачали Мистериум: Журнал 64 через торрент бесплатно!
    Комментировать посты могут только пользователи прошедшие не сложную регистрацию
    Показать сообщения:    

    Мистериум: Журнал 64 через торрент
    Скачать бесплатно Мистериум: Журнал 64
    Мистериум: Журнал 64 скачать торрент
    Мистериум: Журнал 64 смотреть онлайн
    Cкачать фильм Мистериум: Журнал 64 бесплатно
    Мистериум: Журнал 64 скачать торрент в хорошем качестве
    Мистериум: Журнал 64 смотреть онлайн бесплатно в хорошем качестве


    Вы не можете начинать темы
    Вы не можете отвечать на сообщения
    Вы не можете редактировать свои сообщения
    Вы не можете удалять свои сообщения
    Вы не можете голосовать в опросах
    Вы не можете прикреплять файлы к сообщениям
    Вы можете скачивать файлы