Всегда рабочее зеркало без VPN и Proxy просто перед .vidak.icu напиши любое слово или цифру, Пример http://vpb6.vidak.icu

MVO

Лицензия

1 сезон

1

1 сезон

iTunes

1 сезон

13

1 сезон

Deluxe

pack

Рекомендуем

Repack

30

ВАЖНО

RePack

MK11

RePack

jed

RePack

fifa19

RePack

RDR2

RePack

NEED FOR SPEED™ PAYBACK

Кинопоиск HD

6 сезон

 Острые козырьки 6 сезон

Все сериалы

все сериалы на PB.wtf

RePack

FAR CRY 5
  
Magnet ссылка

Бег улиток / Сезон: 1 / Серии: 1-8 из 8 (Стас Иванов) [2021, Драма, триллер, WEBRip 720p, (Версия 18+)] pb.wtf

Бег улиток через торрент pb.wtf

Размер: 9.6 GB | Добавлен: 5 мес. 13 д. назад | Торрент скачан:59 раз
Смотреть онлайн Бег улиток | Скачать    Ребята, помогите собрать деньги на оплату серверов!!!

19-01-2022 04:04 Бег улиток Скачать торрент  

Бег улиток
Год выпуска: 2021
Страна: Россия
Производство: ПК «Среда» по заказу ООО «МТС Медиа»
Жанр: Драма, триллер
Продолжительность: ~ 00:45:00 серия
Перевод: Не требуется
Субтитры: отсутствуют
Версия 18+.

Режиссер: Стас Иванов



В ролях: Дарья Урсуляк, Полина Шеповалова, Кирилл Жандаров, Валерий Панков, Любовь Толкалина, Евгений Санников, Любовь Константинова, Анастасия Лебедева, Алла Еминцева, Василий Башмаков, Мария Дризик, Татьяна Дубинченко, Максим Тригубчак, Вячеслав Харчёв, Александр Классен, Антон Васильев, Екатерина Кукуй, Сергей Уманов, Юрий Насонов, Надежда Мельникова, Александр Куйкка, Олег Рязанцев, Евгений Иванов, Андрей Папанин, Данил Мухин, Валерий Соловьев, Денис Портнов, Дмитрий Собачкин, Артём Злобин, Иван Шевченко, Иван Капорин, Даниил Киселёв, Александр Петров, Мария Сандлер, Арсений Александров, Елена Донина, Виталий Такс, Валентина Лебедева, Евгений Антонов, Олег Абалян, Александр Клемантович, Анжелика Ежова, Юлия Марченко, Юлия Чесняк, Сергей Стукалов, Антон Чернов, Павел Юринов, Дмитрий Лавров, Василий Гузов, Василий Реутов

Описание: Марина работает в кризисном центре для подростков. От сумасшедшей нагрузки у нее случается инсульт, появляются провалы в памяти. Она не помнит, что случилось с ее пациенткой Лерой, которая загадочным образом исчезла из центра. Марина пытается найти и спасти девочку, замечая, что мир вокруг нее становится все более странным. Зритель втягивается в воронку опасности, открывая для себя существование параллельного мира, в котором Марина - отчаянная журналистка, ведущая рискованное расследование. Героиням придется пройти большой путь, чтобы понять, что происходит на самом деле...

Качество: WEBRip 720p
Формат: MKV

Видео: MPEG-4 AVC, 1280x720, ~ 3840 Кбит/с, 0.167 bit/pixel, 25 Кадр/с
Аудио 1: AC3, 48,0 КГц, 2 ch, 192 Кбит/с | С цензурой
Аудио 2: AC3, 48,0 КГц, 2 ch, 192 Кбит/с | Без цензуры (18+)
скриншот  скриншот  скриншот  скриншот  

Общее
Уникальный идентификатор : 160846881315951942401455213263389903906 (0x7901FB86599D4515B8DAF57450CACC22)
Полное имя : D:\Beg.ulitok.S01.2021.WEB-DL.720p\Beg.ulitok.S01.E01.2021.WEB-DL.720p.mkv
Формат : Matroska
Версия формата : Version 4
Размер файла : 1,28 Гбайт
Продолжительность : 44 м. 17 с.
Режим общего битрейта : Постоянный
Общий поток : 4 129 Кбит/сек
Название фильма : Beg.ulitok.S01.E01.2021.WEB-DL.720p
Дата кодирования : UTC 2022-01-19 03:42:12
Программа кодирования : mkvmerge v64.0.0 ('Willows') 64-bit
Библиотека кодирования : libebml v1.4.2 + libmatroska v1.6.4
Attachments : poster.jpg

Видео
Идентификатор : 1
Формат : AVC
Формат/Информация : Advanced Video Codec
Профиль формата : [email protected]
Настройки формата : 2 Ref Frames
Параметр CABAC формата : Нет
Параметр RefFrames формата : 2 кадра
Параметр GOP формата : M=1, N=25
Идентификатор кодека : V_MPEG4/ISO/AVC
Продолжительность : 44 м. 17 с.
Вид битрейта : Постоянный
Битрейт : 3 840 Кбит/сек
Ширина : 1 280 пикселей
Высота : 720 пикселей
Соотношение сторон : 16:9
Режим частоты кадров : Постоянный
Частота кадров : 25,000 кадров/сек
Цветовое пространство : YUV
Субдискретизация насыщенности : 4:2:0
Битовая глубина : 8 бит
Тип развёртки : Прогрессивная
Бит/(Пиксели*Кадры) : 0.167
Размер потока : 1,16 Гбайт (91%)
Default : Да
Forced : Нет

Аудио #1
Идентификатор : 2
Формат : AC-3
Формат/Информация : Audio Coding 3
Коммерческое название : Dolby Digital
Идентификатор кодека : A_AC3
Продолжительность : 44 м. 16 с.
Вид битрейта : Постоянный
Битрейт : 192 Кбит/сек
Каналы : 2 канала
Channel layout : L R
Частота : 48,0 КГц
Частота кадров : 31,250 кадров/сек (1536 SPF)
Метод сжатия : С потерями
Размер потока : 60,8 Мбайт (5%)
Заголовок : Censor
Язык : Russian
Service kind : Complete Main
Default : Да
Forced : Да

Аудио #2
Идентификатор : 3
Формат : AC-3
Формат/Информация : Audio Coding 3
Коммерческое название : Dolby Digital
Идентификатор кодека : A_AC3
Продолжительность : 44 м. 16 с.
Вид битрейта : Постоянный
Битрейт : 192 Кбит/сек
Каналы : 2 канала
Channel layout : L R
Частота : 48,0 КГц
Частота кадров : 31,250 кадров/сек (1536 SPF)
Метод сжатия : С потерями
Размер потока : 60,8 Мбайт (5%)
Заголовок : 18+
Язык : Russian
Service kind : Complete Main
Default : Нет
Forced : Нет

Раздача ведётся путём добавления новых серий, при каждом добавлении создаётся новый торрент. Чтобы начать докачку новой серии, пользователям необходимо сделать следующее:
- Остановить скачивание.
- Удалить старый торрент у себя из клиента (старые серии удалять не надо).
- Скачать новый торрент и запустить его у себя в клиенте вместо старого, при этом указать клиенту путь в старую папку куда и должно происходить скачивание новых серий.
Ваш клиент при этом должен произвести хеширование (проверку) старой папки (если не производит сам - помогите ему сделать это), и будет докачивать только те серии которых у вас ещё нет. Старые серии при этом не удаляются, а продолжают раздаваться!
pb.wtf



Скачать Бег улиток через торрент https://a.radikal.ru/a30/2201/90/2584e73e03ac.jpg Скачать, смотреть онлайн Бег улиток бесплантно в хорошем качестве Описание: Марина работает в кризисном центре для подростков. От сумасшедшей нагрузки у нее случается инсульт, появляются провалы в памяти. ... 8.5 10 6
Торрент: Зарегистрирован [2022-01-25 00:46] · скачан: 59 раз
Статус: √ проверено
Размер: 9.6 GB
Как cкачать? Как скачать Бег улиток через торрент | UTorrent

% Раздел Тема Автор DL S | L
Наши сериалы [ 4.62 GB ] Бег улиток / Сезон: 1 / Серии: 1-8 из 8 [2021 WEBRip-AVC ] bober100 Скачать
2 | 0
Наши сериалы [ 14.83 GB ] Бег улиток / Сезон: 1 / Серии: 1-8 из 8 [2021 WEBRip 1080p ] bober100 Скачать
6 | 0
Наши сериалы [ 5.27 GB ] Бег улиток / Сезон: 1 / Серии: 1-8 из 8 [2021 WEBRip ] bober100 Скачать
4 | 0

28-11-2019 20:33  

Отключить всю рекламу на сайте

    Дорогой пользователь! Огромная просьба, поблагодарите релизера, оцените раздачу и оставьте свои комментарий, если Вы скачали Бег улиток через торрент бесплатно!
    Комментировать посты могут только пользователи прошедшие не сложную регистрацию
    Показать сообщения:    

    Бег улиток через торрент
    Скачать бесплатно Бег улиток
    Бег улиток скачать торрент
    Бег улиток смотреть онлайн
    Cкачать фильм Бег улиток бесплатно
    Бег улиток скачать торрент в хорошем качестве
    Бег улиток смотреть онлайн бесплатно в хорошем качестве


    Вы не можете начинать темы
    Вы не можете отвечать на сообщения
    Вы не можете редактировать свои сообщения
    Вы не можете удалять свои сообщения
    Вы не можете голосовать в опросах
    Вы не можете прикреплять файлы к сообщениям
    Вы можете скачивать файлы