Всегда рабочее зеркало без VPN и Proxy просто перед .vidak.icu напиши любое слово или цифру, Пример http://comx.vidak.icu

MVO

Лицензия

1 сезон

1

1 сезон

iTunes

1 сезон

13

1 сезон

Deluxe

pack

Рекомендуем

Пиратка

30

ВАЖНО

RePack

MK11

RePack

jed

RePack

fifa19

RePack

RDR2

RePack

NEED FOR SPEED™ PAYBACK

Кинопоиск HD

6 сезон

 Острые козырьки 6 сезон

Все сериалы

все сериалы на PB.wtf

RePack

FAR CRY 5
  
Magnet ссылка

Бег улиток / Сезон: 1 / Серии: 1-8 из 8 (Стас Иванов) [2021, Драма, триллер, WEBRip-AVC, (Версия 18+)] pb.wtf

Бег улиток через торрент pb.wtf

Раздают: 1 [ 0 KB/s ]
Размер: 4.62 GB | Добавлен: 5 мес. 7 д. назад | Торрент скачан:143 раза
Смотреть онлайн Бег улиток | Скачать    Ребята, помогите собрать деньги на оплату серверов!!!

19-01-2022 10:54 Бег улиток Скачать торрент  

Бег улиток
Год выпуска: 2021
Страна: Россия
Производство: ПК «Среда» по заказу ООО «МТС Медиа»
Жанр: Драма, триллер
Продолжительность: ~ 00:45:00 серия
Перевод: Не требуется
Субтитры: отсутствуют
Версия 18+.

Режиссер: Стас Иванов



В ролях: Дарья Урсуляк, Полина Шеповалова, Кирилл Жандаров, Валерий Панков, Любовь Толкалина, Евгений Санников, Любовь Константинова, Анастасия Лебедева, Алла Еминцева, Василий Башмаков, Мария Дризик, Татьяна Дубинченко, Максим Тригубчак, Вячеслав Харчёв, Александр Классен, Антон Васильев, Екатерина Кукуй, Сергей Уманов, Юрий Насонов, Надежда Мельникова, Александр Куйкка, Олег Рязанцев, Евгений Иванов, Андрей Папанин, Данил Мухин, Валерий Соловьев, Денис Портнов, Дмитрий Собачкин, Артём Злобин, Иван Шевченко, Иван Капорин, Даниил Киселёв, Александр Петров, Мария Сандлер, Арсений Александров, Елена Донина, Виталий Такс, Валентина Лебедева, Евгений Антонов, Олег Абалян, Александр Клемантович, Анжелика Ежова, Юлия Марченко, Юлия Чесняк, Сергей Стукалов, Антон Чернов, Павел Юринов, Дмитрий Лавров, Василий Гузов, Василий Реутов

Описание: Марина работает в кризисном центре для подростков. От сумасшедшей нагрузки у нее случается инсульт, появляются провалы в памяти. Она не помнит, что случилось с ее пациенткой Лерой, которая загадочным образом исчезла из центра. Марина пытается найти и спасти девочку, замечая, что мир вокруг нее становится все более странным. Зритель втягивается в воронку опасности, открывая для себя существование параллельного мира, в котором Марина - отчаянная журналистка, ведущая рискованное расследование. Героиням придется пройти большой путь, чтобы понять, что происходит на самом деле...

Качество: WEBRip-AVC
Формат: MKV

Видео: MPEG-4 AVC, ~ 1600 Кбит/с, 1024x576, 25 кадр/с
Аудио 1: AC3, 48,0 КГц, 2 ch, 192 Кбит/с | С цензурой
Аудио 2: AC3, 48,0 КГц, 2 ch, 192 Кбит/с | Без цензуры (18+)
скриншот  скриншот  скриншот  скриншот  

General
Unique ID : 148097669051360518401064796229642534994 (0x6F6A92D44DBBF66DCDE0ED1D6604C052)
Complete name : F:\Бег улиток.(2021).WEBRip.(AVC).Files-x\01.Бег улиток.(2021).WEBRip.(AVC).by.Серый1779.Files-x.mkv
Format : Matroska
Format version : Version 4 / Version 2
File size : 630 MiB
Duration : 44 min 17 s
Overall bit rate : 1 988 kb/s
Movie name : Beg.ulitok.S01.E01.2021.WEB-DL.1080p
Encoded date : UTC 2022-01-19 10:07:42
Writing application : mkvmerge v32.0.0 ('Astral Progressions') 64-bit
Writing library : libebml v1.3.7 + libmatroska v1.5.0
Attachments : poster.jpg

Video
ID : 1
Format : AVC
Format/Info : Advanced Video Codec
Format profile : High@L4.1
Format settings : CABAC / 9 Ref Frames
Format settings, CABAC : Yes
Format settings, RefFrames : 9 frames
Codec ID : V_MPEG4/ISO/AVC
Duration : 44 min 17 s
Bit rate : 1 600 kb/s
Width : 1 024 pixels
Height : 576 pixels
Display aspect ratio : 16:9
Frame rate mode : Constant
Frame rate : 25.000 FPS
Color space : YUV
Chroma subsampling : 4:2:0
Bit depth : 8 bits
Scan type : Progressive
Bits/(Pixel*Frame) : 0.109
Stream size : 506 MiB (80%)
Writing library : x264 core 146 r2538 121396c
Encoding settings : cabac=1 / ref=9 / deblock=1:-2:-1 / analyse=0x3:0x133 / me=umh / subme=9 / psy=1 / psy_rd=1.00:0.15 / mixed_ref=1 / me_range=32 / chroma_me=1 / trellis=2 / 8x8dct=1 / cqm=0 / deadzone=21,11 / fast_pskip=0 / chroma_qp_offset=-3 / threads=18 / lookahead_threads=3 / sliced_threads=0 / nr=0 / decimate=1 / interlaced=0 / bluray_compat=0 / constrained_intra=0 / bframes=9 / b_pyramid=2 / b_adapt=2 / b_bias=0 / direct=1 / weightb=1 / open_gop=0 / weightp=2 / keyint=250 / keyint_min=25 / scenecut=40 / intra_refresh=0 / rc=2pass / mbtree=0 / bitrate=1600 / ratetol=1.0 / qcomp=0.60 / qpmin=0 / qpmax=69 / qpstep=4 / cplxblur=20.0 / qblur=0.5 / ip_ratio=1.40 / pb_ratio=1.30 / aq=2:1.00
Default : Yes
Forced : No
Color range : Limited
Color primaries : BT.709
Transfer characteristics : BT.709
Matrix coefficients : BT.709

Audio #1
ID : 2
Format : AC-3
Format/Info : Audio Coding 3
Format settings, Endianness : Big
Codec ID : A_AC3
Duration : 44 min 16 s
Bit rate mode : Constant
Bit rate : 192 kb/s
Channel(s) : 2 channels
Channel positions : Front: L R
Sampling rate : 48.0 kHz
Frame rate : 31.250 FPS (1536 SPF)
Bit depth : 16 bits
Compression mode : Lossy
Stream size : 60.8 MiB (10%)
Title : Censor
Language : Russian
Service kind : Complete Main
Default : Yes
Forced : Yes

Audio #2
ID : 3
Format : AC-3
Format/Info : Audio Coding 3
Format settings, Endianness : Big
Codec ID : A_AC3
Duration : 44 min 16 s
Bit rate mode : Constant
Bit rate : 192 kb/s
Channel(s) : 2 channels
Channel positions : Front: L R
Sampling rate : 48.0 kHz
Frame rate : 31.250 FPS (1536 SPF)
Bit depth : 16 bits
Compression mode : Lossy
Stream size : 60.8 MiB (10%)
Title : 18+
Language : Russian
Service kind : Complete Main
Default : No
Forced : No

Раздача ведётся путём добавления новых серий, при каждом добавлении создаётся новый торрент. Чтобы начать докачку новой серии, пользователям необходимо сделать следующее:
- Остановить скачивание.
- Удалить старый торрент у себя из клиента (старые серии удалять не надо).
- Скачать новый торрент и запустить его у себя в клиенте вместо старого, при этом указать клиенту путь в старую папку куда и должно происходить скачивание новых серий.
Ваш клиент при этом должен произвести хеширование (проверку) старой папки (если не производит сам - помогите ему сделать это), и будет докачивать только те серии которых у вас ещё нет. Старые серии при этом не удаляются, а продолжают раздаваться!
pb.wtf



Скачать Бег улиток через торрент https://a.radikal.ru/a30/2201/90/2584e73e03ac.jpg Скачать, смотреть онлайн Бег улиток бесплантно в хорошем качестве Описание: Марина работает в кризисном центре для подростков. От сумасшедшей нагрузки у нее случается инсульт, появляются провалы в памяти. ... 8.9 10 9
Торрент: Зарегистрирован [2022-01-25 10:53] · скачан: 143 раз
Статус: √ проверено
Размер: 4.62 GB
Как cкачать? Как скачать Бег улиток через торрент | UTorrent

% Раздел Тема Автор DL S | L
Наши сериалы [ 9.6 GB ] Бег улиток / Сезон: 1 / Серии: 1-8 из 8 [2021 WEBRip 720p ] bober100 Скачать
1 | 0
Наши сериалы [ 14.83 GB ] Бег улиток / Сезон: 1 / Серии: 1-8 из 8 [2021 WEBRip 1080p ] bober100 Скачать
4 | 0
Наши сериалы [ 5.27 GB ] Бег улиток / Сезон: 1 / Серии: 1-8 из 8 [2021 WEBRip ] bober100 Скачать
4 | 0

28-11-2019 20:33  

Отключить всю рекламу на сайте

    Дорогой пользователь! Огромная просьба, поблагодарите релизера, оцените раздачу и оставьте свои комментарий, если Вы скачали Бег улиток через торрент бесплатно!
    Комментировать посты могут только пользователи прошедшие не сложную регистрацию
    Показать сообщения:    

    Бег улиток через торрент
    Скачать бесплатно Бег улиток
    Бег улиток скачать торрент
    Бег улиток смотреть онлайн
    Cкачать фильм Бег улиток бесплатно
    Бег улиток скачать торрент в хорошем качестве
    Бег улиток смотреть онлайн бесплатно в хорошем качестве


    Вы не можете начинать темы
    Вы не можете отвечать на сообщения
    Вы не можете редактировать свои сообщения
    Вы не можете удалять свои сообщения
    Вы не можете голосовать в опросах
    Вы не можете прикреплять файлы к сообщениям
    Вы можете скачивать файлы