Всегда рабочее зеркало без VPN и Proxy просто перед .vidak.icu напиши любое слово или цифру, Пример http://kzho.vidak.icu

MVO

Лицензия

1 сезон

1

1 сезон

iTunes

1 сезон

13

1 сезон

Deluxe

pack

Рекомендуем

Repack

30

ВАЖНО

RePack

MK11

RePack

jed

RePack

fifa19

RePack

RDR2

RePack

NEED FOR SPEED™ PAYBACK

Кинопоиск HD

6 сезон

 Острые козырьки 6 сезон

Все сериалы

все сериалы на PB.wtf

RePack

FAR CRY 5
  
Magnet ссылка

Вечные / Eternals (Хлоя Чжао) [2021, Фантастика, фэнтези, боевик, драма, приключения, WEB-DL 720p] [IMAX Edition] DUB [iTunes] pb.wtf

Вечные через торрент pb.wtf

Раздают: 3 [ 0 KB/s ]
Размер: 4.82 GB | Добавлен: 5 мес. 17 д. назад | Торрент скачан:484 раза
Смотреть онлайн Вечные | Скачать    Ребята, помогите собрать деньги на оплату серверов!!!

21-01-2022 03:31 Вечные Скачать торрент  

Вечные
Eternals

Год выпуска: 2021
Страна: Великобритания, США
Выпущено: Marvel Studios, TSG Entertainment
Жанр: Фантастика, фэнтези, боевик, драма, приключения
Продолжительность: 02:35:50
Перевод: Дублированный | iTunes
Субтитры: Русские (Forced, full), английские

Режиссер: Хлоя Чжао

rating

В ролях: Джемма Чан, Ричард Мэдден, Анджелина Джоли, Сальма Хайек, Кит Харингтон, Кумэйл Нанджиани, Лиа МакХью, Брайан Тайри Генри, Лорен Ридлофф, Барри Кеоган

Описание: Вечные — представители расы генетически улучшенных суперлюдей, тайно живущих на Земле. Они появились на свет 5 миллионов лет назад в результате экспериментов могущественных целестиалов. Наделённые невероятными суперспособностями, на протяжении тысячелетий они скрывались от человеческой цивилизации,втайне защищая людей от монструозных девиантов. Однако, последние события и действия Таноса заставили их выйти на свет.

Качество: WEB-DL 720p | IMAX Edition
Формат: MKV

Видео: MPEG-4 AVC, 1280x720, 3275 Kbit/s, 23.976 fps
Аудио #01: 48 kHz, AC3, 5.1, 384 Kbps | iTunes | RUS |
Аудио #02: 48 kHz, E-AC3+Atmos, 5.1, 768 Kbps | Оригинал | ENG |
скриншот  скриншот  скриншот  скриншот  скриншот  

General
Unique ID : 10022966094532221269180042689968642342 (0x78A5A61B38963E93DD76210BC309926)
Complete name : D:VideoEternals.2021.IMAX.WEB-DL.720p.seleZen.mkv
Format : Matroska
Format version : Version 4
File size : 4.82 GiB
Duration : 2 h 35 min
Overall bit rate mode : Variable
Overall bit rate : 4 430 kb/s
Movie name : Eternals 2021 from seleZen
Encoded date : UTC 2022-01-20 21:33:31
Writing application : mkvmerge v59.0.0 ('Shining Star') 64-bit
Writing library : libebml v1.4.2 + libmatroska v1.6.4

Video
ID : 1
Format : AVC
Format/Info : Advanced Video Codec
Format profile : [email protected]
Format settings : CABAC / 4 Ref Frames
Format settings, CABAC : Yes
Format settings, Reference : 4 frames
Codec ID : V_MPEG4/ISO/AVC
Duration : 2 h 35 min
Bit rate mode : Variable
Bit rate : 3 275 kb/s
Maximum bit rate : 6 375 kb/s
Width : 1 280 pixels
Height : 720 pixels
Display aspect ratio : 16:9
Frame rate mode : Constant
Frame rate : 23.976 (24000/1001) FPS
Color space : YUV
Chroma subsampling : 4:2:0
Bit depth : 8 bits
Scan type : Progressive
Bits/(Pixel*Frame) : 0.148
Stream size : 3.57 GiB (74%)
Language : English
Default : Yes
Forced : No
Color range : Limited
Color primaries : BT.709
Transfer characteristics : BT.709
Matrix coefficients : BT.709

Audio #1
ID : 2
Format : AC-3
Format/Info : Audio Coding 3
Commercial name : Dolby Digital
Codec ID : A_AC3
Duration : 2 h 35 min
Bit rate mode : Constant
Bit rate : 384 kb/s
Channel(s) : 6 channels
Channel layout : L R C LFE Ls Rs
Sampling rate : 48.0 kHz
Frame rate : 31.250 FPS (1536 SPF)
Compression mode : Lossy
Stream size : 428 MiB (9%)
Title : iTunes
Language : Russian
Service kind : Complete Main
Default : Yes
Forced : Yes

Audio #2
ID : 3
Format : E-AC-3 JOC
Format/Info : Enhanced AC-3 with Joint Object Coding
Commercial name : Dolby Digital Plus with Dolby Atmos
Codec ID : A_EAC3
Duration : 2 h 35 min
Bit rate mode : Constant
Bit rate : 768 kb/s
Channel(s) : 6 channels
Channel layout : L R C LFE Ls Rs
Sampling rate : 48.0 kHz
Frame rate : 31.250 FPS (1536 SPF)
Compression mode : Lossy
Stream size : 856 MiB (17%)
Title : Original
Language : English
Service kind : Complete Main
Default : No
Forced : No
Complexity index : 16
Number of dynamic objects : 15
Bed channel count : 1 channel
Bed channel configuration : LFE

Text #1
ID : 4
Format : UTF-8
Codec ID : S_TEXT/UTF8
Codec ID/Info : UTF-8 Plain Text
Duration : 2 h 35 min
Bit rate : 4 b/s
Count of elements : 117
Stream size : 5.07 KiB (0%)
Title : Forced
Language : Russian
Default : Yes
Forced : Yes

Text #2
ID : 5
Format : UTF-8
Codec ID : S_TEXT/UTF8
Codec ID/Info : UTF-8 Plain Text
Duration : 2 h 33 min
Bit rate : 65 b/s
Count of elements : 1542
Stream size : 73.6 KiB (0%)
Title : Full
Language : Russian
Default : No
Forced : No

Text #3
ID : 6
Format : UTF-8
Codec ID : S_TEXT/UTF8
Codec ID/Info : UTF-8 Plain Text
Duration : 2 h 32 min
Bit rate : 1 b/s
Count of elements : 81
Stream size : 1.78 KiB (0%)
Title : Forced
Language : English
Default : No
Forced : Yes

Text #4
ID : 7
Format : UTF-8
Codec ID : S_TEXT/UTF8
Codec ID/Info : UTF-8 Plain Text
Duration : 2 h 33 min
Bit rate : 42 b/s
Count of elements : 1786
Stream size : 47.2 KiB (0%)
Title : Full
Language : English
Default : No
Forced : No

Text #5
ID : 8
Format : UTF-8
Codec ID : S_TEXT/UTF8
Codec ID/Info : UTF-8 Plain Text
Duration : 2 h 33 min
Bit rate : 52 b/s
Count of elements : 2212
Stream size : 59.0 KiB (0%)
Title : SDH
Language : English
Default : No
Forced : No

pb.wtf



Скачать Вечные через торрент https://i116.fastpic.org/big/2022/0121/6f/0aa58b9f2554f37975e979092837666f.jpg Скачать, смотреть онлайн Вечные бесплантно в хорошем качестве Описание: Вечные — представители расы генетически улучшенных суперлюдей, тайно живущих на Земле. Они появились на свет 5 миллионов лет ... 9 10 8
Info! Золотая раздача, скачанное не засчитывается.
Торрент: Зарегистрирован [2022-01-21 03:31] · скачан: 484 раз
Статус: √ проверено
Размер: 4.82 GB
Как cкачать? Как скачать Вечные через торрент | UTorrent

% Раздел Тема Автор DL S | L
Фильмы (WEB-DL 720p, 1080p) [ 12.06 GB ] Вечные / Eternals [2021 WEB-DL 1080p] [Локализованная версия] DUB [Невафильм] bober100 Скачать
2 | 0
Фильмы 2021 [DVDrip, WEB-DLRip, HDrip] (DUB, MVO) [ 2.18 GB ] Вечные / Eternals [2021 WEB-DLRip] [Локализованная версия] DUB [Невафильм] bober100 Скачать
2 | 0
3D Фильмы [ 15.72 GB ] Вечные в 3Д / Eternals 3D [2021 BDRip 1080p] OverUnder / Вертикальная стереопара () serega768 Скачать
2 | 0
Фильмы 2021 [DVDrip, WEB-DLRip, HDrip] (DUB, MVO) [ 2.12 GB ] Вечные / Eternals [2021 BDRip] - Twi7ter Скачать
22 | 0
Ultra HD (UHD: 2K, 4K, 8K) — видео сверхвысокой чёткости [ 46.57 GB ] Вечные / Eternals [2021 UHD BDRemux 2160p] bober100 Скачать
3 | 0
Фильмы [HD 720p, 1080p] (Хороший звук DUB, MVO) [ 14.87 GB ] Вечные / Eternals [2021 BDRip 1080p] DUB +MVO [HDRezka Studio] bober100 Скачать
1 | 0
Фильмы (WEB-DL 720p, 1080p) [ 8.39 GB ] Вечные / Eternals [2021 WEB-DL 1080p] [IMAX Edition] bober100 Скачать
4 | 0

28-11-2019 20:33  

Отключить всю рекламу на сайте

28-01-2022 17:20 Вечные Скачать торрент  

Говнище редкостное! Очень жаль, что сейчас поток бабок льют в это направление. Сюжета нет. И обязательно нужно показать многорассу, и душевные проблемы. В остальном ничего!pb.wtf



09-02-2022 11:39 Вечные Скачать торрент  

показывают типа нации в мире никогда такого небет сколдько это надо показывать !!! посмотрите реал на мексиканцев китайцев как они Нац политикой захватывают земли . неееттт надо в фильме сделать все друзьья толерантность.. ТУПО опять ! а уже 2022!pb.wtf



    Дорогой пользователь! Огромная просьба, поблагодарите релизера, оцените раздачу и оставьте свои комментарий, если Вы скачали Вечные через торрент бесплатно!
    Комментировать посты могут только пользователи прошедшие не сложную регистрацию
    Показать сообщения:    

    Вечные через торрент
    Скачать бесплатно Вечные
    Вечные скачать торрент
    Вечные смотреть онлайн
    Cкачать фильм Вечные бесплатно
    Вечные скачать торрент в хорошем качестве
    Вечные смотреть онлайн бесплатно в хорошем качестве


    Вы не можете начинать темы
    Вы не можете отвечать на сообщения
    Вы не можете редактировать свои сообщения
    Вы не можете удалять свои сообщения
    Вы не можете голосовать в опросах
    Вы не можете прикреплять файлы к сообщениям
    Вы можете скачивать файлы