Всегда рабочее зеркало без VPN и Proxy просто перед .vidak.icu напиши любое слово или цифру, Пример http://vrb9.vidak.icu

Лицензия

MVO

1 сезон

1

1 сезон

iTunes

1 сезон

13

1 сезон

Deluxe

pack

Рекомендуем

Repack

30

ВАЖНО

RePack

MK11

RePack

jed

RePack

fifa19

RePack

RDR2

RePack

NEED FOR SPEED™ PAYBACK

Кинопоиск HD

6 сезон

 Острые козырьки 6 сезон

Все сериалы

все сериалы на PB.wtf

RePack

FAR CRY 5
  
Magnet ссылка

Прошлой ночью в Сохо / Last Night in Soho (Эдгар Райт) [2021, Ужасы, триллер, драма, детектив, UHD BDRemux 2160p] DUB [iTunes] pb.wtf

Прошлой ночью в Сохо через торрент pb.wtf

Размер: 45.71 GB | Добавлен: 6 мес. назад | Торрент скачан:116 раз
Смотреть онлайн Прошлой ночью в Сохо | Скачать    Ребята, помогите собрать деньги на оплату серверов!!!

21-01-2022 03:58 Прошлой ночью в Сохо Скачать торрент  

Прошлой ночью в Сохо
Last Night in Soho

Год выпуска: 2021
Страна: Великобритания
Выпущено: Complete Fiction, Film4, Focus Features International (FFI), Perfect World (Beijing) Pictures Co., Perfect World Pictures,Working Title Films
Жанр: Ужасы, триллер, драма, детектив
Продолжительность: 01:56:32
Перевод: Дублированный | iTunes
Субтитры: Русские (Full), английские

Режиссер: Эдгар Райт

rating

В ролях: Аня Тейлор-Джой, Джесси Мей Ли, Мэтт Смит, Дайана Ригг, Томасин МакКензи, Теренс Стэмп, Синновэ Карлсен, Лиза МакГриллис, Рита Ташингэм, Майкл Джибсон, Эндрю Бикнелл, Йоаким Скарли, Колин Мейс, Маргарет Нолан, Джеймс Фелпс, Оливер Фелпс

Описание: Каждую ночь Элоиза, грезящая о карьере модного дизайнера, оказывается в Лондоне 1960-х, где в отражении вместо себя видит начинающую певицу, наслаждается гламурной жизнью и романом с красивым мужчиной. Постепенно эти сны проникают в реальные будни девушки, населяя их призраками и ужасом. «Прошлой ночью в Сохо» — психологический триллер Эдгара Райта с Томасин МакКензи, Аней Тейлор-Джой и Мэттом Смитом в главных ролях.

Качество: UHD BDRemux 2160p
Формат: MKV

Видео: 3840x2160 at 23.976 fps, MPEG-H HEVC HDR Video, ~ 52500 kbps avg
Аудио #01: 48 kHz, AC3, 5.1, 384 Kbps | iTunes | RUS |
Аудио #02: 48 kHz, TrueHD, 7.1, 2754 Kbps | Оригинал | ENG |
Аудио #03: 48 kHz, AC3, 5.1, 640 Kbps | Оригинал | ENG |
скриншот  скриншот  скриншот  скриншот  скриншот  

General
Unique ID : 100320228889139652478147734069565836037 (0x4B78F9292CEA7B16B8FEFEA920E9CB05)
Complete name : D:VideoLast.Night.in.Soho.2021.BDREMUX.12160p.HDR.seleZen.mkv
Format : Matroska
Format version : Version 4
File size : 45.7 GiB
Duration : 1 h 56 min
Overall bit rate mode : Variable
Overall bit rate : 56.1 Mb/s
Movie name : Last Night in Soho 2021 from seleZen
Encoded date : UTC 2022-01-20 21:09:52
Writing application : mkvmerge v59.0.0 ('Shining Star') 64-bit
Writing library : libebml v1.4.2 + libmatroska v1.6.4

Video
ID : 1
ID in the original source m : 4113 (0x1011)
Format : HEVC
Format/Info : High Efficiency Video Coding
Format profile : Main [email protected]@High
HDR format : SMPTE ST 2086, HDR10 compatible
Codec ID : V_MPEGH/ISO/HEVC
Duration : 1 h 56 min
Bit rate : 52.5 Mb/s
Width : 3 840 pixels
Height : 2 160 pixels
Display aspect ratio : 16:9
Frame rate mode : Constant
Frame rate : 23.976 (24000/1001) FPS
Color space : YUV
Chroma subsampling : 4:2:0 (Type 2)
Bit depth : 10 bits
Bits/(Pixel*Frame) : 0.264
Stream size : 42.7 GiB (93%)
Default : Yes
Forced : No
Color range : Limited
Color primaries : BT.2020
Transfer characteristics : PQ
Matrix coefficients : BT.2020 non-constant
Mastering display color pri : Display P3
Mastering display luminance : min: 0.0001 cd/m2, max: 1000 cd/m2
Maximum Content Light Level : 997 cd/m2
Maximum Frame-Average Light : 81 cd/m2
Original source medium : Blu-ray

Audio #1
ID : 2
Format : AC-3
Format/Info : Audio Coding 3
Commercial name : Dolby Digital
Codec ID : A_AC3
Duration : 1 h 56 min
Bit rate mode : Constant
Bit rate : 384 kb/s
Channel(s) : 6 channels
Channel layout : L R C LFE Ls Rs
Sampling rate : 48.0 kHz
Frame rate : 31.250 FPS (1536 SPF)
Compression mode : Lossy
Stream size : 320 MiB (1%)
Title : iTunes
Language : Russian
Service kind : Complete Main
Default : Yes
Forced : Yes

Audio #2
ID : 3
ID in the original source m : 4352 (0x1100)
Format : MLP FBA 16-ch
Format/Info : Meridian Lossless Packing FBA with 16-channel presentation
Commercial name : Dolby TrueHD with Dolby Atmos
Codec ID : A_TRUEHD
Duration : 1 h 56 min
Bit rate mode : Variable
Bit rate : 2 754 kb/s
Maximum bit rate : 5 115 kb/s
Channel(s) : 8 channels
Channel layout : L R C LFE Ls Rs Lb Rb
Sampling rate : 48.0 kHz
Frame rate : 1 200.000 FPS (40 SPF)
Compression mode : Lossless
Stream size : 2.24 GiB (5%)
Title : Original
Language : English
Default : No
Forced : No
Original source medium : Blu-ray
Number of dynamic objects : 11
Bed channel count : 1 channel
Bed channel configuration : LFE

Audio #3
ID : 4
ID in the original source m : 4352 (0x1100)
Format : AC-3
Format/Info : Audio Coding 3
Commercial name : Dolby Digital
Codec ID : A_AC3
Duration : 1 h 56 min
Bit rate mode : Constant
Bit rate : 448 kb/s
Channel(s) : 6 channels
Channel layout : L R C LFE Ls Rs
Sampling rate : 48.0 kHz
Frame rate : 31.250 FPS (1536 SPF)
Compression mode : Lossy
Stream size : 373 MiB (1%)
Language : English
Service kind : Complete Main
Default : No
Forced : No
Original source medium : Blu-ray

Text #1
ID : 5
Format : UTF-8
Codec ID : S_TEXT/UTF8
Codec ID/Info : UTF-8 Plain Text
Duration : 1 h 55 min
Bit rate : 80 b/s
Count of elements : 1520
Stream size : 67.9 KiB (0%)
Title : Full
Language : Russian
Default : No
Forced : No

Text #2
ID : 6
Format : UTF-8
Codec ID : S_TEXT/UTF8
Codec ID/Info : UTF-8 Plain Text
Duration : 1 h 54 min
Bit rate : 59 b/s
Count of elements : 1816
Stream size : 49.4 KiB (0%)
Title : Full
Language : English
Default : No
Forced : No

Text #3
ID : 7
Format : UTF-8
Codec ID : S_TEXT/UTF8
Codec ID/Info : UTF-8 Plain Text
Duration : 1 h 56 min
Bit rate : 69 b/s
Count of elements : 2104
Stream size : 58.9 KiB (0%)
Title : SDH
Language : English
Default : No
Forced : No

Menu
00:00:00.000 : Chapter 01
00:06:08.284 : Chapter 02
00:13:28.015 : Chapter 03
00:17:58.410 : Chapter 04
00:22:24.885 : Chapter 05
00:26:44.227 : Chapter 06
00:33:47.650 : Chapter 07
00:40:02.566 : Chapter 08
00:44:41.011 : Chapter 09
00:51:25.082 : Chapter 10
00:57:22.105 : Chapter 11
01:03:52.912 : Chapter 12
01:09:08.144 : Chapter 13
01:14:40.851 : Chapter 14
01:20:37.666 : Chapter 15
01:26:46.075 : Chapter 16
01:34:01.093 : Chapter 17
01:41:23.911 : Chapter 18
01:49:58.800 : Chapter 19
01:52:18.231 : Chapter 20

pb.wtf



Скачать Прошлой ночью в Сохо через торрент https://d.radikal.ru/d33/2201/94/53825fce1c26.jpg Скачать, смотреть онлайн Прошлой ночью в Сохо бесплантно в хорошем качестве Описание: Каждую ночь Элоиза, грезящая о карьере модного дизайнера, оказывается в Лондоне 1960-х, где в отражении вместо себя видит ... 10 10 5
Торрент: Зарегистрирован [2022-01-21 03:58] · скачан: 116 раз
Статус: √ проверено
Размер: 45.71 GB
Как cкачать? Как скачать Прошлой ночью в Сохо через торрент | UTorrent

% Раздел Тема Автор DL S | L
Фильмы с украинским озвучиванием [ 18.09 GB ] Прошлой ночью в Сохо / Минулої ночі у Сохо / Last Night in Soho [2021 BDRip 1080p] [Ukr DUB] killermax2013 Скачать
1 | 0
Фильмы [HD 720p, 1080p] (Хороший звук DUB, MVO) [ 17.42 GB ] Прошлой ночью в Сохо / Last Night in Soho [2021 BDRip 1080p] bober100 Скачать
1 | 0
Фильмы 2021 [DVDrip, WEB-DLRip, HDrip] (DUB, MVO) [ 2.5 GB ] Прошлой ночью в Сохо / Last Night in Soho [2021 HDRip-AVC] +MVO [Jaskier] bober100 Скачать
1 | 0
Фильмы 2021 [DVDrip, WEB-DLRip, HDrip] (DUB, MVO) [ 2.13 GB ] Прошлой ночью в Сохо / Last Night in Soho [2021 BDRip] bober100 Скачать
1 | 0
Фильмы 2021 [DVDrip, WEB-DLRip, HDrip] (DUB, MVO) [ 1.46 GB ] Прошлой ночью в Сохо / Last Night in Soho [2021 BDRip] bober100 Скачать
2 | 0
Фильмы (Blu-ray, BD-Remux, HDDVD) [ 26.17 GB ] Прошлой ночью в Сохо / Last Night in Soho [2021 BD Remux 1080p] bober100 Скачать
1 | 0
Фильмы 2021 [DVDrip, WEB-DLRip, HDrip] (DUB, MVO) [ 1.46 GB ] Прошлой ночью в Сохо / Last Night in Soho [2021 BDRip] MVO [Jaskier] bober100 Скачать
1 | 0

28-11-2019 20:33  

Отключить вcю реклaмy на сайте

19-02-2022 11:39 Прошлой ночью в Сохо Скачать торрент  

Неплохой фильм , во всяком случае рейтинг заслуженный.pb.wtf



    Дорогой пользователь! Огромная просьба, поблагодарите релизера, оцените раздачу и оставьте свои комментарий, если Вы скачали Прошлой ночью в Сохо через торрент бесплатно!
    Комментировать посты могут только пользователи прошедшие не сложную регистрацию
    Показать сообщения:    

    Прошлой ночью в Сохо через торрент
    Скачать бесплатно Прошлой ночью в Сохо
    Прошлой ночью в Сохо скачать торрент
    Прошлой ночью в Сохо смотреть онлайн
    Cкачать фильм Прошлой ночью в Сохо бесплатно
    Прошлой ночью в Сохо скачать торрент в хорошем качестве
    Прошлой ночью в Сохо смотреть онлайн бесплатно в хорошем качестве


    Вы не можете начинать темы
    Вы не можете отвечать на сообщения
    Вы не можете редактировать свои сообщения
    Вы не можете удалять свои сообщения
    Вы не можете голосовать в опросах
    Вы не можете прикреплять файлы к сообщениям
    Вы можете скачивать файлы