Всегда рабочее зеркало без VPN и Proxy просто перед .vidak.icu напиши любое слово или цифру, Пример http://emd7.vidak.icu

MVO

2 сезон

2 сезон

1

1 сезон

iTunes

2 сезон

13

1 сезон

Deluxe

pack

Рекомендуем

Пиратка

30

ВАЖНО

RePack

MK11

RePack

jed

RePack

fifa19

RePack

RDR2

RePack

NEED FOR SPEED™ PAYBACK

Кинопоиск HD

6 сезон

 Острые козырьки 6 сезон

Все сериалы

все сериалы на PB.wtf

RePack

FAR CRY 5

Anonymous, нам критически не хватает 5601 руб. на оплату серверов и переферии за Апрель, помоги нам пожалуйста, вся надежда только на тебя. В благодарность мы отключим тебе всю рекламу на сайте!

×
  
Magnet ссылка

Большой красный пес Клиффорд / Clifford the Big Red Dog (Уолт Бекер) [2021, Фэнтези, комедия, приключения, семейный, HDRip-AVC] DUB [SDI Media / IVI] pb.wtf

Большой красный пес Клиффорд через торрент pb.wtf

Размер: 2.19 GB | Добавлен: 3 мес. 24 д. назад | Торрент скачан:47 раз
Смотреть онлайн Большой красный пес Клиффорд | Скачать    Ребята, помогите собрать деньги на оплату серверов!!!

21-01-2022 08:19 Большой красный пес Клиффорд Скачать торрент  

Большой красный пес Клиффорд
Clifford the Big Red Dog

Год выпуска: 2021
Страна: Канада, США
Студия: Aurum Producciones S.A., Kerner Entertainment Company, New Republic Pictures, Paramount Pictures, Scholastic Entertainment, Walden Media
Жанр: Фэнтези, комедия, приключения, семейный
Продолжительность: 01:36:26
Перевод: Дублированный | SDI Media | IVI
Субтитры: Русские (forced, full), украинские (full)

Режиссер: Уолт Бекер

rating

В ролях: Джек Уайтхолл, Дэрби Кэмп, Сиенна Гиллори, Дэвид Алан Грир, Джон Клиз, Расселл Вонг, Айзек Ванг, Тони Хейл, Оратио Санс, Пол Родригес

Описание: Когда школьница Эмили получает в подарок от спасателя животных очаровательного щенка с красной шерстью, она и представить не может, что на утро обнаружит в своей маленькой нью-йоркской квартирке огромного трёхметрового пса! Мама в командировке, поэтому самые захватывающие и необыкновенные приключения ждут Эмили и ее веселого и порывистого дядю Кейси. Клиффорд научит их, а заодно и весь мир, любить по-крупному.

Качество: HDRip-AVC
Формат: MKV

Видео: MPEG-4 AVC, 1024x512 at 24.000 fps, x264@L4.1, ~2860 kbps
Аудио: 48 kHz, AC3 Dolby Digital, 3/2 (L, C, R, l, r) + LFE ch, ~384 Kbps
скриншот  скриншот  скриншот  скриншот  скриншот  

x264 [info]: frame I:1912 Avg QP:13.69 size: 94435
x264 [info]: frame P:35939 Avg QP:17.02 size: 29854
x264 [info]: frame B:100869 Avg QP:18.97 size: 8072

General
Unique ID : 123547066910395484354268780911460633388 (0x5CF24CB0A536D54379A269F197CC4B2C)
Complete name : K:Clifford.the.Big.Red.Dog.2021.DUB.HDRip.x264.mkv
Format : Matroska
Format version : Version 4
File size : 2.19 GiB
Duration : 1 h 36 min
Overall bit rate : 3 245 kb/s
Encoded date : UTC 2022-01-24 20:13:28
Writing application : mkvmerge v64.0.0 ('Willows') 64-bit
Writing library : libebml v1.4.2 + libmatroska v1.6.4
Cover : Yes
Attachments : cover.jpg / cover 2.jpg

Video
ID : 1
Format : AVC
Format/Info : Advanced Video Codec
Format profile : High@L4.1
Format settings : CABAC / 12 Ref Frames
Format settings, CABAC : Yes
Format settings, Reference : 12 frames
Codec ID : V_MPEG4/ISO/AVC
Duration : 1 h 36 min
Bit rate : 2 860 kb/s
Width : 1 024 pixels
Height : 512 pixels
Display aspect ratio : 2.000
Frame rate mode : Constant
Frame rate : 23.976 (24000/1001) FPS
Color space : YUV
Chroma subsampling : 4:2:0
Bit depth : 8 bits
Scan type : Progressive
Bits/(Pixel*Frame) : 0.228
Stream size : 1.93 GiB (88%)
Title : -=DoMiNo=-
Writing library : x264 core 164 r3081 19856cc
Encoding settings : cabac=1 / ref=12 / deblock=1:-2:-2 / analyse=0x3:0x133 / me=umh / subme=10 / psy=1 / psy_rd=1.00:0.00 / mixed_ref=1 / me_range=32 / chroma_me=1 / trellis=2 / 8x8dct=1 / cqm=0 / deadzone=21,11 / fast_pskip=0 / chroma_qp_offset=-2 / threads=16 / lookahead_threads=4 / sliced_threads=0 / nr=0 / decimate=0 / interlaced=0 / bluray_compat=0 / constrained_intra=0 / bframes=10 / b_pyramid=2 / b_adapt=2 / b_bias=0 / direct=3 / weightb=1 / open_gop=0 / weightp=2 / keyint=250 / keyint_min=23 / scenecut=40 / intra_refresh=0 / rc_lookahead=60 / rc=2pass / mbtree=0 / bitrate=2860 / ratetol=1.0 / qcomp=0.60 / qpmin=0 / qpmax=69 / qpstep=4 / cplxblur=20.0 / qblur=0.5 / vbv_maxrate=50000 / vbv_bufsize=62500 / nal_hrd=none / filler=0 / ip_ratio=1.40 / pb_ratio=1.30 / aq=3:0.80
Language : English
Default : Yes
Forced : No
Color range : Limited
Color primaries : BT.709
Matrix coefficients : BT.709

Audio
ID : 2
Format : AC-3
Format/Info : Audio Coding 3
Commercial name : Dolby Digital
Codec ID : A_AC3
Duration : 1 h 36 min
Bit rate mode : Constant
Bit rate : 384 kb/s
Channel(s) : 6 channels
Channel layout : L R C LFE Ls Rs
Sampling rate : 48.0 kHz
Frame rate : 31.250 FPS (1536 SPF)
Compression mode : Lossy
Stream size : 265 MiB (12%)
Title : DUB_SDI Media
Language : Russian
Service kind : Complete Main
Default : Yes
Forced : No

Text #1
ID : 3
Format : UTF-8
Codec ID : S_TEXT/UTF8
Codec ID/Info : UTF-8 Plain Text
Duration : 1 h 25 min
Bit rate : 0 b/s
Count of elements : 12
Stream size : 588 Bytes (0%)
Title : Forced
Language : Russian
Default : Yes
Forced : No

Text #2
ID : 4
Format : UTF-8
Codec ID : S_TEXT/UTF8
Codec ID/Info : UTF-8 Plain Text
Duration : 1 h 27 min
Bit rate : 128 b/s
Count of elements : 1649
Stream size : 82.7 KiB (0%)
Language : Russian
Default : No
Forced : No

Text #3
ID : 5
Format : UTF-8
Codec ID : S_TEXT/UTF8
Codec ID/Info : UTF-8 Plain Text
Duration : 1 h 27 min
Bit rate : 83 b/s
Count of elements : 1676
Stream size : 53.5 KiB (0%)
Language : English
Default : No
Forced : No

Menu
00:00:00.000 : en:Chapter 01
00:06:33.059 : en:Chapter 02
00:13:48.578 : en:Chapter 03
00:18:39.285 : en:Chapter 04
00:25:50.632 : en:Chapter 05
00:34:04.167 : en:Chapter 06
00:39:43.798 : en:Chapter 07
00:48:37.331 : en:Chapter 08
00:56:41.273 : en:Chapter 09
01:02:47.597 : en:Chapter 10
01:08:56.507 : en:Chapter 11
01:12:35.643 : en:Chapter 12
01:20:14.810 : en:Chapter 13
01:30:53.198 : en:Chapter 14

pb.wtf



Скачать Большой красный пес Клиффорд через торрент https://i116.fastpic.org/big/2022/0121/e1/c4983a774d58052dbc691f5bf83dbde1.jpg Скачать, смотреть онлайн Большой красный пес Клиффорд бесплантно в хорошем качестве Описание: Когда школьница Эмили получает в подарок от спасателя животных очаровательного щенка с красной шерстью, она и представить не ... 10 10 2
Торрент: Зарегистрирован [2022-01-25 01:26] · скачан: 47 раз
Статус: √ проверено
Размер: 2.19 GB
Как cкачать? Как скачать Большой красный пес Клиффорд через торрент | UTorrent

% Раздел Тема Автор DL S | L
Фильмы 2021 [DVDrip, WEB-DLRip, HDrip] (DUB, MVO) [ 1.42 GB ] Большой красный пес Клиффорд / Clifford the Big Red Dog [2021 BDRip] - Twi7ter Скачать
94 | 1
Фильмы 2021 [DVDrip, WEB-DLRip, HDrip] (DUB, MVO) [ 746 MB ] Большой красный пес Клиффорд / Clifford the Big Red Dog [2021 BDRip] DUB [SDI Media / ] bober100 Скачать
2 | 0
Фильмы (Blu-ray, BD-Remux, HDDVD) [ 22.39 GB ] Большой красный пес Клиффорд / Clifford the Big Red Dog [2021 BD Remux 1080p] DUB bober100 Скачать
2 | 0
Фильмы [HD 720p, 1080p] (Хороший звук DUB, MVO) [ 3.48 GB ] Большой красный пес Клиффорд / Clifford the Big Red Dog [2021 BDRip 720p] DUB [SDI Media / IVI] bober100 Скачать
4 | 0
Ultra HD (UHD: 2K, 4K, 8K) — видео сверхвысокой чёткости [ 10.84 GB ] Большой красный пес Клиффорд / Clifford the Big Red Dog [2021 UHD WEB-DL 2160p] DUB [SDI Media / IVI] +DVO [Pazl Voice] bober100 Скачать
2 | 0
Фильмы 2021 [DVDrip, WEB-DLRip, HDrip] (DUB, MVO) [ 1.93 GB ] Большой красный пес Клиффорд / Clifford the Big Red Dog [2021 WEB-DLRip] 2x killermax2013 Скачать
3 | 0
Фильмы [HD 720p, 1080p] (Хороший звук DUB, MVO) [ 11.15 GB ] Большой красный пес Клиффорд / Clifford the Big Red Dog [2021 BDRip 1080p] DUB bober100 Скачать
5 | 0

28-11-2019 20:33  

Отключить всю рекламу на сайте

    Дорогой пользователь! Огромная просьба, поблагодарите релизера, оцените раздачу и оставьте свои комментарий, если Вы скачали Большой красный пес Клиффорд через торрент бесплатно!
    Комментировать посты могут только пользователи прошедшие не сложную регистрацию
    Показать сообщения:    

    Большой красный пес Клиффорд через торрент
    Скачать бесплатно Большой красный пес Клиффорд
    Большой красный пес Клиффорд скачать торрент
    Большой красный пес Клиффорд смотреть онлайн
    Cкачать фильм Большой красный пес Клиффорд бесплатно
    Большой красный пес Клиффорд скачать торрент в хорошем качестве
    Большой красный пес Клиффорд смотреть онлайн бесплатно в хорошем качестве


    Вы не можете начинать темы
    Вы не можете отвечать на сообщения
    Вы не можете редактировать свои сообщения
    Вы не можете удалять свои сообщения
    Вы не можете голосовать в опросах
    Вы не можете прикреплять файлы к сообщениям
    Вы можете скачивать файлы