Всегда рабочее зеркало без VPN и Proxy просто перед .vidak.icu напиши любое слово или цифру, Пример http://lpqe.vidak.icu

MVO

Лицензия

1 сезон

1

1 сезон

iTunes

1 сезон

13

1 сезон

Deluxe

pack

Рекомендуем

Repack

30

ВАЖНО

RePack

MK11

RePack

jed

RePack

fifa19

RePack

RDR2

RePack

NEED FOR SPEED™ PAYBACK

Кинопоиск HD

6 сезон

 Острые козырьки 6 сезон

Все сериалы

все сериалы на PB.wtf

RePack

FAR CRY 5
  
Magnet ссылка

Перевал / Der Pass / Pagan Peak / Сезон: 2 / Серии: 1-8 из 8 (Сирил Босс, Филипп Штеннерт) [2022, Триллер, драма, криминал, детектив, WEBRip 720p] [MVO] (HDRezka Studio) pb.wtf

Перевал через торрент pb.wtf

Раздают: 3 [ 0 KB/s ]
Размер: 5.67 GB | Добавлен: 5 мес. 12 д. назад | Торрент скачан:171 раз
Смотреть онлайн Перевал | Скачать    Ребята, помогите собрать деньги на оплату серверов!!!

22-01-2022 15:20 Перевал Скачать торрент  

Перевал / Der Pass / Pagan Peak

Год выпуска: 2022
Страна: Германия, Австрия
Жанр: Триллер, драма, криминал, детектив
Продолжительность: ~00:48:00
Перевод: Профессиональный (многоголосый закадровый) - HDRezka Studio
Субтитры: русские (forced)

Режиссёр: Сирил Босс, Филипп Штеннерт

В ролях: Юлиа Енч, Николас Офчарек, Франц Хартвиг, Ханно Коффлер, Лукас Мико, Наташа Петрович, Лукас Грегорович, Мартин Файфель, Кристофер Шерф, Джулиан Лооман

Описание: После того, как полиция обнаруживает тело неизвестного в Альпах вблизи германо-австрийской границы, двух детективов из разных стран отправляют расследовать загадочное убийство. Для немки Элли это дело является первым настоящим вызовом в карьере, а австриец Гедеон давно уже потерял интерес к своей работе. Вскоре герои находят похожие места преступлений, где тела жертв были расположены в странных позах. Понимая, что они столкнулись с серией ритуальных убийств, детективы всё дальше углубляются в мрачные и безлюдные альпийские долины...

ratingскриншот  

Качество: WEBRip 720p
Формат: MKV
Видео: MPEG4-AVC, 1280х720, ~2 500 kbps, 25 fps
Аудио: 48 kHz, AC3, 2 ch, 192 kbps avg | HDRezka Studio
скриншот  скриншот  скриншот  скриншот  скриншот  
General
Unique ID : 220264976112358626758054115967838209648 (0xA5B57DC71C96D136A7E078144B044670)
Complete name : F:\фильмы\Der Pass.S02.WEBRip.720p.xz\Der Pass.S02E01.WEBRip(720p).[MVO](HDRezka Studio).xz.mkv
Format : Matroska
Format version : Version 4
File size : 938 MiB
Duration : 47 min 47 s
Overall bit rate mode : Variable
Overall bit rate : 2 743 kb/s
Movie name : Der Pass.S02E01.WEBRip(720p).[MVO](HDRezka Studio).xz
Encoded date : UTC 2022-01-22 15:01:18
Writing application : mkvmerge v6.1.0 ('Old Devil') built on Mar 2 2013 14:32:37
Writing library : libebml v1.3.0 + libmatroska v1.4.0

Video
ID : 1
Format : AVC
Format/Info : Advanced Video Codec
Format profile : [email protected]
Format settings : CABAC / 1 Ref Frames
Format settings, CABAC : Yes
Format settings, Reference : 1 frame
Codec ID : V_MPEG4/ISO/AVC
Duration : 47 min 47 s
Bit rate mode : Variable
Bit rate : 2 496 kb/s
Maximum bit rate : 2 000 kb/s
Width : 1 280 pixels
Height : 720 pixels
Display aspect ratio : 16:9
Frame rate mode : Constant
Frame rate : 25.000 FPS
Color space : YUV
Chroma subsampling : 4:2:0
Bit depth : 8 bits
Scan type : Progressive
Bits/(Pixel*Frame) : 0.108
Stream size : 853 MiB (91%)
Title : Der Pass.S02E01.WEBRip(720p).[MVO](HDRezka Studio).xz
Default : Yes
Forced : No
Statistics Tags Issue : mkvmerge v28.2.0 ('The Awakening') 64-bit 2022-01-21 23:08:23 / mkvmerge v6.1.0 ('Old Devil') built on Mar 2 2013 14:32:37 2022-01-22 15:01:18
FromStats_BitRate : 2546233
FromStats_Duration : 00:47:57.600000000
FromStats_FrameCount : 71940
FromStats_StreamSize : 915880306
Duration_Source : General_Duration

Audio
ID : 2
Format : AC-3
Format/Info : Audio Coding 3
Commercial name : Dolby Digital
Codec ID : A_AC3
Duration : 47 min 47 s
Bit rate mode : Constant
Bit rate : 192 kb/s
Channel(s) : 2 channels
Channel layout : L R
Sampling rate : 48.0 kHz
Frame rate : 31.250 FPS (1536 SPF)
Compression mode : Lossy
Stream size : 65.6 MiB (7%)
Title : HDRezka Studio
Language : Russian
Service kind : Complete Main
Default : Yes
Forced : No
Duration_Source : General_Duration

Text
ID : 3
Format : UTF-8
Codec ID : S_TEXT/UTF8
Codec ID/Info : UTF-8 Plain Text
Title : rus (forced)
Language : Russian
Default : No
Forced : No
Statistics Tags Issue : mkvmerge v28.2.0 ('The Awakening') 64-bit 2022-01-21 23:08:23 / mkvmerge v6.1.0 ('Old Devil') built on Mar 2 2013 14:32:37 2022-01-22 15:01:18
FromStats_BitRate : 1
FromStats_Duration : 00:18:59.150000000
FromStats_FrameCount : 4
FromStats_StreamSize : 166
Внимание! Раздача ведётся путём добавления новых серий; при каждом добавлении создаётся новый торрент. Чтобы начать докачку новой серии, пользователям необходимо сделать следующее:
(1) остановить скачивание,
(2) удалить старый торрент у себя из клиента (старые серии удалять не надо),
(3) скачать новый торрент и запустить его у себя в клиенте вместо старого, при этом указать клиенту путь в старую папку куда и должно происходить скачивание новых серий.

Ваш клиент при этом должен произвести хеширование (проверку) старой папки (если не производит сам - помогите ему сделать это), и будет докачивать только те серии которых у вас ещё нет. Старые серии при этом не удаляются, а продолжают раздаваться!

Eсли вы уже удалили старые серии, то предотвратить повторную закачку старых серий можно, отжав галочку в соответствующих местах при запуске нового торрента. По возможности, желательно не удалять старые серии как можно дольше чтобы релизёр не столько продолжал раздавать старые серии, а смог сконцентрироваться на новых.
pb.wtf



Скачать Перевал через торрент https://i5.imageban.ru/out/2022/01/22/80b7d56f228ba70d4639ed44913a5141.jpg Скачать, смотреть онлайн Перевал бесплантно в хорошем качестве Описание: После того, как полиция обнаруживает тело неизвестного в Альпах вблизи германо-австрийской границы, двух детективов из разных ... 9.1 10 10
Торрент: Зарегистрирован [2022-01-25 08:59] · скачан: 171 раз
Статус: √ проверено
Размер: 5.67 GB
Как cкачать? Как скачать Перевал через торрент | UTorrent

% Раздел Тема Автор DL S | L
Зарубежные сериалы [ 21.29 GB ] Перевал / Der Pass / Pagan Peak / Сезон: 2 / Серии: 1-8 из 8 [2022 WEB-DL 1080p] [MVO] + [DVO] killermax2013 Скачать
1 | 0


Последний раз редактировалось: killermax2013 (2022-01-25 08:59), всего редактировалось 4 раз(а)

28-11-2019 20:33  

Отключить всю рекламу на сайте

23-01-2022 04:55 Перевал Скачать торрент  

Йопть! Я уж забыл, что в первом сезоне было.pb.wtf



23-01-2022 16:11 Перевал Скачать торрент  

Спасибо! давно ждал и выложил релизер в приличной озвучке, еще раз спасибоpb.wtf
Kkillermax2013 писал(а):

приятного просмотра



25-01-2022 09:30 Перевал Скачать торрент  

Благодарствую! Первый сезон был атмосферным)pb.wtf



    Дорогой пользователь! Огромная просьба, поблагодарите релизера, оцените раздачу и оставьте свои комментарий, если Вы скачали Перевал через торрент бесплатно!
    Комментировать посты могут только пользователи прошедшие не сложную регистрацию
    Показать сообщения:    

    Перевал через торрент
    Скачать бесплатно Перевал
    Перевал скачать торрент
    Перевал смотреть онлайн
    Cкачать фильм Перевал бесплатно
    Перевал скачать торрент в хорошем качестве
    Перевал смотреть онлайн бесплатно в хорошем качестве


    Вы не можете начинать темы
    Вы не можете отвечать на сообщения
    Вы не можете редактировать свои сообщения
    Вы не можете удалять свои сообщения
    Вы не можете голосовать в опросах
    Вы не можете прикреплять файлы к сообщениям
    Вы можете скачивать файлы