Всегда рабочее зеркало без VPN и Proxy просто перед .vidak.icu напиши любое слово или цифру, Пример http://79yi.vidak.icu

iTunes

2 сезон

1 сезон

1

1 сезон

iTunes

2 сезон

13

1 сезон

Deluxe

pack

Рекомендуем

Пиратка

30

ВАЖНО

RePack

MK11

RePack

jed

RePack

fifa19

RePack

RDR2

RePack

NEED FOR SPEED™ PAYBACK

Кинопоиск HD

6 сезон

 Острые козырьки 6 сезон

Все сериалы

все сериалы на PB.wtf

RePack

FAR CRY 5

Anonymous, нам критически не хватает 5601 руб. на оплату серверов и переферии за Апрель, помоги нам пожалуйста, вся надежда только на тебя. В благодарность мы отключим тебе всю рекламу на сайте!

×
  
Magnet ссылка

Кипелов - Концерт с симфоническим оркестром [2021, Heavy-Metal, Hard-Rock, BDRip 720p] pb.wtf

Кипелов - Концерт с симфоническим оркестром через торрент pb.wtf

Раздают: 2 [ 0 KB/s ] Качают: 1 [ 0 KB/s ]
Размер: 9.67 GB | Добавлен: 4 мес. 4 д. назад | Торрент скачан:87 раз
Смотреть онлайн Кипелов - Концерт с симфоническим оркестром | Скачать    Ребята, помогите собрать деньги на оплату серверов!!!

24-01-2022 13:23 Кипелов - Концерт с симфоническим оркестром Скачать торрент  

Кипелов - Концерт с симфоническим оркестром
Год выпуска: 2021
Страна: Россия
Жанр: Heavy-Metal, Hard-Rock
Продолжительность: 02:18:10
Перевод: Не требуется
Субтитры: отсутствуют

Описание: Группа Кипелов представляет вашему вниманию "Концерт с симфоническим оркестром", который прошел в Москве в марте 2020 года в Crocus City Hall. Это шоу, которое прошло с аншлагом, стало концом большого тура по 2019-2020. Всё действие снималось на 21 видеокамеру и записывалось для последующего микширования звука, как в стерео, так и в многоканальном окружающем режиме. Таким образом, все посетившие концерты "симфонического" тура смогут в очередной раз окунуться в его уникальную атмосферу; те, кто этого не сделал, откроют группу Кипелов с нового ракурса. Концерт записан при участии симфонического оркестра и хора "Русская филармония".

13 марта 2020 года в стенах Crocus City Hall при полном аншлаге состоялся "Концерт с симфоническим оркестром", ставший завершением большого тура 2019-2020 годов. Помимо участников группы "Кипелов", на сцене в этот вечер присутствовало более 90 музыкантов оркестра «Русская Филармония» во главе с дирижёром Вадимом Кузьминским. Запись звука была произведена на 120 независимых каналов. Сведение осуществлялось на легендарной студии Finnvox (Финляндия).

Качество: BDRip 720p
Формат: MKV

Видео: MPEG4 Video (H264), 1280x720, 8 504 kb/s, 25fps
Аудио: DTS 48000 Hz 6ch 1536kbps
01. Интро
02. Жить вопреки
03. Влacть огня
04. Вавилон
05. Наваждение
06. Дыхание последней любви
07. Белый ад
08. Пророк
09. Косово поле
10. Сальери и его Отражение
11. Потерянный рай
12. Дыхание тьмы
13. Безумие
14. Свет дневной иссяк
15. Мёртвая зона
16. Castlevania
17. Реки времён
18. Закат
19. Следуй за мной
20. Тореро
21. Я свободен


General
Unique ID : 173517348172665451352301327729565408983 (0x828A39C59DDA62A5074A243AB0189ED7)
Complete name : D:TorrentКипелов - Концерт с симфоническим оркестром.mkv
Format : Matroska
Format version : Version 4
File size : 9.67 GiB
Duration : 2 h 18 min
Overall bit rate : 10.0 Mb/s
Movie name : Кипелов - Концерт с симфоническим оркестром
Encoded date : UTC 2022-01-23 09:13:01
Writing application : mkvmerge v64.0.0 ('Willows') 64-bit
Writing library : libebml v1.4.2 + libmatroska v1.6.4

Video
ID : 1
Format : AVC
Format/Info : Advanced Video Codec
Format profile : High@L4.1
Format settings : CABAC / 8 Ref Frames
Format settings, CABAC : Yes
Format settings, Reference : 8 frames
Codec ID : V_MPEG4/ISO/AVC
Duration : 2 h 18 min
Bit rate : 8 504 kb/s
Width : 1 280 pixels
Height : 720 pixels
Display aspect ratio : 16:9
Frame rate mode : Constant
Frame rate : 25.000 FPS
Color space : YUV
Chroma subsampling : 4:2:0
Bit depth : 8 bits
Scan type : Progressive
Bits/(Pixel*Frame) : 0.369
Stream size : 8.21 GiB (85%)
Writing library : x264 core 164 r3075+1M 3c08d7c
Encoding settings : cabac=1 / ref=8 / deblock=1:-1:-1 / analyse=0x3:0x133 / me=umh / subme=9 / psy=1 / psy_rd=1.00:0.15 / mixed_ref=1 / me_range=16 / chroma_me=1 / trellis=2 / 8x8dct=1 / cqm=0 / deadzone=21,11 / fast_pskip=1 / chroma_qp_offset=-3 / threads=6 / lookahead_threads=1 / sliced_threads=0 / nr=0 / decimate=1 / interlaced=0 / bluray_compat=0 / constrained_intra=0 / bframes=3 / b_pyramid=2 / b_adapt=2 / b_bias=0 / direct=3 / weightb=1 / open_gop=1 / weightp=2 / keyint=250 / keyint_min=25 / scenecut=40 / intra_refresh=0 / rc_lookahead=60 / rc=crf / mbtree=1 / crf=16.0 / qcomp=0.60 / qpmin=0 / qpmax=69 / qpstep=4 / ip_ratio=1.40 / aq=1:1.00
Default : Yes
Forced : No
Color range : Limited
Color primaries : BT.709
Transfer characteristics : BT.709
Matrix coefficients : BT.709

Audio
ID : 2
Format : DTS
Format/Info : Digital Theater Systems
Codec ID : A_DTS
Duration : 2 h 18 min
Bit rate mode : Constant
Bit rate : 1 509 kb/s
Channel(s) : 6 channels
Channel layout : C L R Ls Rs LFE
Sampling rate : 48.0 kHz
Frame rate : 93.750 FPS (512 SPF)
Bit depth : 24 bits
Compression mode : Lossy
Stream size : 1.46 GiB (15%)
Language : Russian
Default : Yes
Forced : No

Menu
00:00:00.000 : en:Chapter 1
00:02:22.120 : en:Chapter 2
00:07:25.000 : en:Chapter 3
00:12:32.040 : en:Chapter 4
00:19:03.520 : en:Chapter 5
00:25:31.840 : en:Chapter 6
00:31:59.520 : en:Chapter 7
00:36:16.920 : en:Chapter 8
00:43:35.320 : en:Chapter 9
00:53:06.880 : en:Chapter 10
01:02:21.920 : en:Chapter 11
01:09:10.920 : en:Chapter 12
01:15:14.480 : en:Chapter 13
01:22:47.080 : en:Chapter 14
01:29:43.040 : en:Chapter 15
01:36:25.120 : en:Chapter 16
01:43:18.280 : en:Chapter 17
01:49:00.320 : en:Chapter 18
01:53:56.560 : en:Chapter 19
01:59:15.160 : en:Chapter 20
02:06:31.800 : en:Chapter 21

pb.wtf



Скачать Кипелов - Концерт с симфоническим оркестром через торрент https://b.radikal.ru/b09/2201/fd/2c11e7fe736e.jpg Скачать, смотреть онлайн Кипелов - Концерт с симфоническим оркестром [2021, Heavy-Metal, Hard-Rock, BDRip 720p] бесплантно в хорошем качестве Описание: Группа Кипелов представляет вашему вниманию "Концерт с симфоническим оркестром", который прошел в Москве в марте 2020 года в ... 9.8 10 12
Info! Золотая раздача, скачанное не засчитывается.
Торрент: Зарегистрирован [2022-01-24 13:23] · скачан: 87 раз
Статус: √ проверено
Размер: 9.67 GB
Как cкачать? Как скачать Кипелов - Концерт с симфоническим оркестром через торрент | UTorrent

28-11-2019 20:33  

Отключить всю рекламу на сайте

    Дорогой пользователь! Огромная просьба, поблагодарите релизера, оцените раздачу и оставьте свои комментарий, если Вы скачали Кипелов - Концерт с симфоническим оркестром через торрент бесплатно!
    Комментировать посты могут только пользователи прошедшие не сложную регистрацию
    Показать сообщения:    

    Кипелов - Концерт с симфоническим оркестром через торрент
    Скачать бесплатно Кипелов - Концерт с симфоническим оркестром
    Кипелов - Концерт с симфоническим оркестром скачать торрент
    Кипелов - Концерт с симфоническим оркестром смотреть онлайн
    Cкачать фильм Кипелов - Концерт с симфоническим оркестром бесплатно
    Кипелов - Концерт с симфоническим оркестром скачать торрент в хорошем качестве
    Кипелов - Концерт с симфоническим оркестром смотреть онлайн бесплатно в хорошем качестве


    Вы не можете начинать темы
    Вы не можете отвечать на сообщения
    Вы не можете редактировать свои сообщения
    Вы не можете удалять свои сообщения
    Вы не можете голосовать в опросах
    Вы не можете прикреплять файлы к сообщениям
    Вы можете скачивать файлы