Доктор Стрэндж

Лицензия

Добыча

Дубляж

Уэнсдэй

1 сезон

Тор

Дубляж

В эфире

Дубляж

Там, где раки поют

MVO

Властелин колец

1 сезон

Deluxe

pack

Рекомендуем

30

Пиратка

ВАЖНО

ВАЖНО

Ghostwire

Пиратка

jed

RePack

nioh2

RePack

RDR2

RePack

NEED FOR SPEED™ PAYBACK

RePack

скачать торрент

Кинопоиск HD

Острые козырьки 6 сезон

6 сезон

FAR CRY 6

RePack

скачать торрент

Лицензия

скачать торрент

MVO

1

1 сезон

скачать торрент

1 сезон

скачать торрент

Лицензия

  

Засланец из космоса / Местный пришелец / Resident Alien / Сезон: 2 / Серии: 1-16 из 16 (Роберт Данкан МакНил, Джей Чандрашекхар, Шеннон Коли) [2022, Фантастика, драма, комедия, детектив, WEB-DL 720p] 3xMVO+ DVO [Кубик в кубе]

Засланец из космоса через торрент pb.wtf

Раздают: 1 [ 240 KB/s ]
Размер: 30.61 GB | Добавлен: 1 мес. 29 д. назад | Торрент скачан:15 раз
Смотреть онлайн | Скачать   

28-01-2022 00:04 Засланец из космоса Скачать торрент  

Засланец из космоса | Местный пришелец
Resident Alien

«The sci-fi murder mystery doctor dramedy Earth needs now»
Год выпуска: 2022
Страна: США
Выпущено: Universal Cable Productions, Dark Horse Entertainment, Amblin Television
Жанр: фантастика, драма, комедия, детектив
Премьера (мир): 27 января 2021
Продолжительность: ~ 00:46:00 серия
Перевод:
Профессиональный (многоголосый) | Кравец
Профессиональный (многоголосый) | AlexFilm
Профессиональный (многоголосый) | HDRezka
Профессиональный (двухголосый) | Кубик в кубе
Субтитры: Русские (Full), английские (SDH)

Режиссер: Роберт Данкан МакНил, Джей Чандрашекхар, Шеннон Коли

rating

В ролях: Алан Тьюдик, Сара Томко, Кори Рейнольдс, Элис Веттерлунд, Леви Филер, Джуда Прен, Элизабет Бауэн, Бен Коттон, Мередит Гарретсон, Грэйслин Авад Ринке, Кэйлайла Рэйн, Дебора Финкел, Дженна Ламия, Гэри Фармер, Диана Пан, Манделл Мофан, Алекс Барима, Элвин Сандерс, Элви Йост, Линда Хэмилтон, Натан Филлион, Терри О`Куинн, Джорджио Цукалос

Описание: После того, как его корабль потерпел крушение на Земле, инопланетянин Гарри осел в провинциальном городе штата Колорадо под видом местного врача. Постепенно он приспосабливается к жизни на новой планете, но чем дольше он находится среди людей, тем больше его терзают сомнения по поводу миссии, с которой он был сюда послан, — уничтожить всё человечество.

Качество: WEB-DL 720p
Формат: MKV

Видео: MPEG-4 AVC, ~ 4370 Kbps, 1280x720 (16:9), 23.976 FPS
Аудио 1: AC3, 48 kHz, 6 ch, 448 kbps - Rus (Kravec-Rekordz)
Аудио 2: AC3, 48 kHz, 6 ch, 384 kbps - Rus (AlexFilm)
Аудио 3: AC3, 48 kHz, 6 ch, 448 kbps - Rus (HDRezka)
Аудио 4: AC3, 48 kHz, 6 ch, 448 kbps - Rus (Kubik v Kube)
Аудио 5: AC3, 48 kHz, 6 ch, 640 kbps - Eng
скриншот  скриншот  скриншот  скриншот  

Общее
Уникальный идентификатор : 197406139940050434533920152507412644398 (0x94830A23FD1B9ECD9ED9E4BD8FF8022E)
Полное имя : Засланец из космоса. 2 сезон. 2022. EniaHD (WEB-DL 720p)\Resident.Alien.s02e01. Старые друзья.mkv
Формат : Matroska
Версия формата : Version 2
Размер файла : 2,21 Гбайт
Продолжительность : 46 м. 7 с.
Общий поток : 6 859 Кбит/сек
Название фильма : Resident.Alien.S02E01.Old Friends.WEB-DL [email protected]
Дата кодирования : UTC 2022-01-28 21:01:20
Программа кодирования : mkvmerge v6.9.1 ('Blue Panther') 32bit built on Apr 18 2014 18:15:44
Библиотека кодирования : libebml v1.3.0 + libmatroska v1.4.1
Обложка : Yes
Attachments : Cover_Resident.Alien.jpg

Видео
Идентификатор : 1
Формат : AVC
Формат/Информация : Advanced Video Codec
Профиль формата : [email protected]
Настройки формата : CABAC / 4 Ref Frames
Параметр CABAC формата : Да
Параметр RefFrames формата : 4 кадра
Идентификатор кодека : V_MPEG4/ISO/AVC
Продолжительность : 46 м. 7 с.
Вид битрейта : Постоянный
Битрейт : 4 370 Кбит/сек
Номинальный битрейт : 6 000 Кбит/сек
Ширина : 1 280 пикселей
Высота : 720 пикселей
Соотношение сторон : 16:9
Режим частоты кадров : Постоянный
Частота кадров : 23,976 (24000/1001) кадра/сек
Цветовое пространство : YUV
Субдискретизация насыщенности : 4:2:0
Битовая глубина : 8 бит
Тип развёртки : Прогрессивная
Бит/(Пиксели*Кадры) : 0.197
Размер потока : 1,40 Гбайт (63%)
Язык : English
Default : Да
Forced : Нет
Цветовой диапазон : Limited
Основные цвета : BT.709
Характеристики трансфера : BT.709
Коэффициенты матрицы : BT.709

Аудио #1
Идентификатор : 2
Формат : AC-3
Формат/Информация : Audio Coding 3
Коммерческое название : Dolby Digital
Идентификатор кодека : A_AC3
Продолжительность : 46 м. 7 с.
Вид битрейта : Постоянный
Битрейт : 448 Кбит/сек
Каналы : 6 каналов
Channel layout : L R C LFE Ls Rs
Частота : 48,0 КГц
Частота кадров : 31,250 кадров/сек (1536 SPF)
Метод сжатия : С потерями
Размер потока : 148 Мбайт (7%)
Заголовок : Kravec-Rekordz
Язык : Russian
Service kind : Complete Main
Default : Да
Forced : Нет

Аудио #2
Идентификатор : 3
Формат : AC-3
Формат/Информация : Audio Coding 3
Коммерческое название : Dolby Digital
Идентификатор кодека : A_AC3
Продолжительность : 46 м. 7 с.
Вид битрейта : Постоянный
Битрейт : 384 Кбит/сек
Каналы : 6 каналов
Channel layout : L R C LFE Ls Rs
Частота : 48,0 КГц
Частота кадров : 31,250 кадров/сек (1536 SPF)
Метод сжатия : С потерями
Размер потока : 127 Мбайт (6%)
Заголовок : AlexFilm
Язык : Russian
Service kind : Complete Main
Default : Нет
Forced : Нет

Аудио #3
Идентификатор : 4
Формат : AC-3
Формат/Информация : Audio Coding 3
Коммерческое название : Dolby Digital
Идентификатор кодека : A_AC3
Продолжительность : 46 м. 7 с.
Вид битрейта : Постоянный
Битрейт : 448 Кбит/сек
Каналы : 6 каналов
Channel layout : L R C LFE Ls Rs
Частота : 48,0 КГц
Частота кадров : 31,250 кадров/сек (1536 SPF)
Метод сжатия : С потерями
Размер потока : 148 Мбайт (7%)
Заголовок : HDRezka
Язык : Russian
Service kind : Complete Main
Default : Нет
Forced : Нет

Аудио #4
Идентификатор : 5
Формат : AC-3
Формат/Информация : Audio Coding 3
Коммерческое название : Dolby Digital
Идентификатор кодека : A_AC3
Продолжительность : 46 м. 7 с.
Вид битрейта : Постоянный
Битрейт : 448 Кбит/сек
Каналы : 6 каналов
Channel layout : L R C LFE Ls Rs
Частота : 48,0 КГц
Частота кадров : 31,250 кадров/сек (1536 SPF)
Метод сжатия : С потерями
Размер потока : 148 Мбайт (7%)
Заголовок : Kubik v Kube
Язык : Russian
Service kind : Complete Main
Default : Нет
Forced : Нет

Аудио #5
Идентификатор : 6
Формат : AC-3
Формат/Информация : Audio Coding 3
Коммерческое название : Dolby Digital
Идентификатор кодека : A_AC3
Продолжительность : 46 м. 7 с.
Вид битрейта : Постоянный
Битрейт : 640 Кбит/сек
Каналы : 6 каналов
Channel layout : L R C LFE Ls Rs
Частота : 48,0 КГц
Частота кадров : 31,250 кадров/сек (1536 SPF)
Метод сжатия : С потерями
Размер потока : 211 Мбайт (9%)
Язык : English
Service kind : Complete Main
Default : Нет
Forced : Нет

Текст #1
Идентификатор : 7
Формат : UTF-8
Идентификатор кодека : S_TEXT/UTF8
Идентификатор кодека/Информация : UTF-8 Plain Text
Заголовок : Forced
Язык : Russian
Default : Да
Forced : Да

Текст #2
Идентификатор : 8
Формат : UTF-8
Идентификатор кодека : S_TEXT/UTF8
Идентификатор кодека/Информация : UTF-8 Plain Text
Язык : Russian
Default : Нет
Forced : Нет

Текст #3
Идентификатор : 9
Формат : UTF-8
Идентификатор кодека : S_TEXT/UTF8
Идентификатор кодека/Информация : UTF-8 Plain Text
Заголовок : SDH
Язык : English
Default : Нет
Forced : Нет

Внимание! Раздача ведётся путём добавления новых серий; при каждом добавлении создаётся новый торрент.
Чтобы начать докачку новой серии, пользователям необходимо сделать следующее:
1. Остановить скачивание;
2. Удалить старый торрент у себя из клиента (старые серии удалять не надо);
3. Скачать новый торрент и запустить его у себя в клиенте вместо старого, при этом указать клиенту путь в старую папку куда и должно происходить скачивание новых серий. Ваш клиент при этом должен произвести хеширование (проверку) старой папки и будет докачивать только те серии, которых у вас ещё нет. Старые серии при этом не удаляются, а продолжают раздаваться! Eсли вы уже удалили старые серии, то предотвратить повторную закачку старых серий можно, отжав галочку в соответствующих местах при запуске нового торрента.




Скачать Засланец из космоса через торрент https://i116.fastpic.org/big/2022/0127/85/df57e92463f1716a41fa107542a35485.jpg Скачать, смотреть онлайн Засланец из космоса бесплантно в хорошем качестве Описание: После того, как его корабль потерпел крушение на Земле, инопланетянин Гарри осел в провинциальном городе штата Колорадо под видом ... 10 10 8
Info! Золотая раздача, скачанное не засчитывается.
Торрент: Зарегистрирован [2022-10-07 17:09] · скачан: 15 раз
Статус: √ проверено
Размер: 30.61 GB
Как cкачать? Как скачать Засланец из космоса через торрент | UTorrent

% Раздел Тема Автор DL S | L
Зарубежные сериалы [ 49.72 GB ] Засланец из космоса / Местный пришелец / Resident Alien / Сезон: 2 / Серии: 1-16 из 16 | MVO | 1080p bober100 Скачать
2 | 0
Зарубежные сериалы [ 33.98 GB ] Засланец из космоса / Местный пришелец / Resident Alien / Сезон: 2 / Серии: 1-16 из 16 | MVO | 1080p bober100 Скачать
2 | 0
Зарубежные сериалы [ 8.47 GB ] Засланец из космоса / Местный пришелец / Resident Alien / Сезон: 2 / Серии: 1-16 из 16 | HDRezka Studio | DLRip bober100 Скачать
4 | 1
Зарубежные сериалы [ 8.47 GB ] Засланец из космоса / Местный пришелец / Resident Alien / Сезон: 2 / Серии: 1-16 из 16 | MVO | WEBRip bober100 Скачать
2 | 1

28-11-2019 20:33  


Отключить вcю реклaмy на сайте, в т.ч. и в плеере онлайн просмотра!

    Дорогой пользователь! Огромная просьба, поблагодарите релизера, оцените раздачу и оставьте свои комментарий, если Вы скачали Засланец из космоса через торрент бесплатно!!
    Комментировать посты могут только пользователи прошедшие не сложную регистрацию
    Показать сообщения:    


    Засланец из космоса через торрент
    Скачать бесплатно Засланец из космоса
    Засланец из космоса скачать торрент
    Засланец из космоса смотреть онлайн
    Cкачать фильм Засланец из космоса бесплатно
    Засланец из космоса скачать торрент в хорошем качестве
    Засланец из космоса смотреть онлайн бесплатно в хорошем качестве
    Вы не можете начинать темы
    Вы не можете отвечать на сообщения
    Вы не можете редактировать свои сообщения
    Вы не можете удалять свои сообщения
    Вы не можете голосовать в опросах
    Вы не можете прикреплять файлы к сообщениям
    Вы можете скачивать файлы
    Засланец из космоса / Местный пришелец / Resident Alien / Сезон: 2 / Серии: 1-16 из 16 [2022, Фантастика, драма, комедия, детектив, WEB-DL 720p] 3xMVO+ DVO [Кубик в кубе] смотреть онлайн, скачать торрент picoco.icu