Всегда рабочее зеркало без VPN и Proxy просто перед .vidak.icu напиши любое слово или цифру, Пример http://9ykg.vidak.icu

Лицензия

MVO

1 сезон

1

1 сезон

iTunes

1 сезон

13

1 сезон

Deluxe

pack

Рекомендуем

Repack

30

ВАЖНО

RePack

MK11

RePack

jed

RePack

fifa19

RePack

RDR2

RePack

NEED FOR SPEED™ PAYBACK

Кинопоиск HD

6 сезон

 Острые козырьки 6 сезон

Все сериалы

все сериалы на PB.wtf

RePack

FAR CRY 5
  
Magnet ссылка

Жажда золота / Gold (Энтони Хэйес) [2022, Триллер, WEB-DL 1080p] 2xMVO [Jaskier, NewComers] +AVO [BadBajo] pb.wtf

Жажда золота через торрент pb.wtf

Размер: 4.84 GB | Добавлен: 6 мес. назад | Торрент скачан:376 раз
Смотреть онлайн Жажда золота | Скачать    Ребята, помогите собрать деньги на оплату серверов!!!

28-01-2022 02:28 Жажда золота Скачать торрент  

Жажда золота
Gold

Год выпуска: 2022
Страна: Австралия
Студия: Deeper Water, Ingenious Media, Pump Metal Films, Rogue Star Productions, SunJive Studios
Жанр: Триллер
Продолжительность: 01:36:27
Перевод:
Профессиональный (многоголосый) | Jaskier
Профессиональный (многоголосый) | NewComers
Авторский (одноголосый) | BadBajo
Субтитры: Aнглийские

Режиссер: Энтони Хэйес

rating

В ролях: Зак Эфрон, Сьюзи Портер, Энтони Хэйес

Описание: Будущее. Ресурсы на исходе. Люди выживают, как могут. Два попутчика отправляются в опасную зону — на заброшенный прииск в пустыне. Когда они находят огромные залежи золота, более опытный искатель отправляется за техникой, а молодой остаётся караулить сокровище. Приближается песчаная буря, вокруг снуют дикие животные и опасные путники, а напарник не выходит на связь.

Качество: WEB-DL 1080p
Формат: MKV

Видео: MPEG-4 AVC, 5575 Кбит/с, 1920x1080
Аудио #1: AC3, 6 ch, 448 Кбит/с | RUS | Jaskier
Аудио #2: AC3, 6 ch, 384 Кбит/с | RUS | NewComers
Аудио #3: AC3, 6 ch, 384 Кбит/с | RUS | BadBajo
Аудио #4: AC3, 6 ch, 384 Кбит/с | ENG |
скриншот  скриншот  скриншот  скриншот  скриншот  

Общее
Уникальный идентификатор : 80811770987651959741559639052380839721 (0x3CCBC7ED0574F03551594E5EA86C9F29)
Полное имя : E:TorrentsGold.2022.1080p.WEB-DL_от New-Team.mkv
Формат : Matroska
Версия формата : Version 4
Размер файла : 4,84 Гбайт
Продолжительность : 1 ч. 36 м.
Общий поток : 7 177 Кбит/сек
Название фильма : Gold.2022.1080p.WEB-DL_от New-Team
Дата кодирования : UTC 2022-01-27 13:06:31
Программа кодирования : mkvmerge v59.0.0 ('Shining Star') 64-bit
Библиотека кодирования : libebml v1.4.2 + libmatroska v1.6.4

Видео
Идентификатор : 1
Формат : AVC
Формат/Информация : Advanced Video Codec
Профиль формата : [email protected]
Настройки формата : CABAC / 4 Ref Frames
Параметр CABAC формата : Да
Параметр RefFrames формата : 4 кадра
Идентификатор кодека : V_MPEG4/ISO/AVC
Продолжительность : 1 ч. 36 м.
Битрейт : 5 575 Кбит/сек
Ширина : 1 920 пикселей
Высота : 1 080 пикселей
Соотношение сторон : 16:9
Режим частоты кадров : Постоянный
Частота кадров : 24,000 кадра/сек
Цветовое пространство : YUV
Субдискретизация насыщенности : 4:2:0
Битовая глубина : 8 бит
Тип развёртки : Прогрессивная
Бит/(Пиксели*Кадры) : 0.112
Размер потока : 3,76 Гбайт (78%)
Default : Да
Forced : Нет
Цветовой диапазон : Limited
Основные цвета : BT.709
Характеристики трансфера : BT.709
Коэффициенты матрицы : BT.709

Аудио #1
Идентификатор : 2
Формат : AC-3
Формат/Информация : Audio Coding 3
Коммерческое название : Dolby Digital
Идентификатор кодека : A_AC3
Продолжительность : 1 ч. 36 м.
Вид битрейта : Постоянный
Битрейт : 448 Кбит/сек
Каналы : 6 каналов
Channel layout : L R C LFE Ls Rs
Частота : 48,0 КГц
Частота кадров : 31,250 кадров/сек (1536 SPF)
Метод сжатия : С потерями
Размер потока : 309 Мбайт (6%)
Заголовок : [MVO] Jaskier
Язык : Russian
Service kind : Complete Main
Default : Да
Forced : Нет

Аудио #2
Идентификатор : 3
Формат : AC-3
Формат/Информация : Audio Coding 3
Коммерческое название : Dolby Digital
Идентификатор кодека : A_AC3
Продолжительность : 1 ч. 36 м.
Вид битрейта : Постоянный
Битрейт : 384 Кбит/сек
Каналы : 6 каналов
Channel layout : L R C LFE Ls Rs
Частота : 48,0 КГц
Частота кадров : 31,250 кадров/сек (1536 SPF)
Метод сжатия : С потерями
Размер потока : 265 Мбайт (5%)
Заголовок : [MVO] NewComers
Язык : Russian
Service kind : Complete Main
Default : Нет
Forced : Нет

Аудио #3
Идентификатор : 4
Формат : AC-3
Формат/Информация : Audio Coding 3
Коммерческое название : Dolby Digital
Идентификатор кодека : A_AC3
Продолжительность : 1 ч. 36 м.
Вид битрейта : Постоянный
Битрейт : 384 Кбит/сек
Каналы : 6 каналов
Channel layout : L R C LFE Ls Rs
Частота : 48,0 КГц
Частота кадров : 31,250 кадров/сек (1536 SPF)
Метод сжатия : С потерями
Размер потока : 265 Мбайт (5%)
Заголовок : [AVO] BadBajo
Язык : Russian
Service kind : Complete Main
Default : Нет
Forced : Нет

Аудио #4
Идентификатор : 5
Формат : AC-3
Формат/Информация : Audio Coding 3
Коммерческое название : Dolby Digital
Идентификатор кодека : A_AC3
Продолжительность : 1 ч. 36 м.
Вид битрейта : Постоянный
Битрейт : 384 Кбит/сек
Каналы : 6 каналов
Channel layout : L R C LFE Ls Rs
Частота : 48,0 КГц
Частота кадров : 31,250 кадров/сек (1536 SPF)
Метод сжатия : С потерями
Размер потока : 265 Мбайт (5%)
Язык : English
Service kind : Complete Main
Default : Нет
Forced : Нет

Текст
Идентификатор : 6
Формат : UTF-8
Идентификатор кодека : S_TEXT/UTF8
Идентификатор кодека/Информация : UTF-8 Plain Text
Продолжительность : 1 ч. 36 м.
Битрейт : 25 бит/сек
Count of elements : 744
Размер потока : 18,0 Кбайт (0%)
Заголовок : CC
Язык : English
Default : Нет
Forced : Нет

pb.wtf



Скачать Жажда золота через торрент https://i116.fastpic.org/big/2022/0126/aa/6c2733173899e97eb79177e8309d3caa.jpg Скачать, смотреть онлайн Жажда золота бесплантно в хорошем качестве Описание: Будущее. Ресурсы на исходе. Люди выживают, как могут. Два попутчика отправляются в опасную зону — на заброшенный прииск в ... 9.8 10 13
Info! Золотая раздача, скачанное не засчитывается.
Торрент: Зарегистрирован [2022-01-28 02:28] · скачан: 376 раз
Статус: √ проверено
Размер: 4.84 GB
Как cкачать? Как скачать Жажда золота через торрент | UTorrent

% Раздел Тема Автор DL S | L
Фильмы [HD 720p, 1080p] (Хороший звук DUB, MVO) [ 8.16 GB ] Жажда золота / Gold [2022 BDRip 1080p] DUB [Марафон / Кинопоиск HD] bober100 Скачать
4 | 0
Фильмы 2021 [DVDrip, WEB-DLRip, HDrip] (DUB, MVO) [ 747 MB ] Жажда золота / Gold [2022 HDRip] DUB [Марафон / Кинопоиск HD] bober100 Скачать
1 | 0
Фильмы (Blu-ray, BD-Remux, HDDVD) [ 25.07 GB ] Жажда золота / Gold [2022 BD Remux 1080p] DUB [Марафон / Кинопоиск HD] bober100 Скачать
1 | 0
Фильмы 2022 [DVDrip, WEB-DLRip, HDrip] (DUB, MVO) [ 1.46 GB ] Жажда золота / Gold [2022 WEB-DLRip] DUB [Марафон / Кинопоиск HD] bober100 Скачать
2 | 0
Ultra HD (UHD: 2K, 4K, 8K) — видео сверхвысокой чёткости [ 9.38 GB ] Жажда золота / Gold [2022 UHD WEB-DL-HEVC 2160p] DUB [Марафон / Кинопоиск HD] bober100 Скачать
1 | 0
Фильмы [HD 720p, 1080p] (Хороший звук DUB, MVO) [ 4.52 GB ] Жажда золота / Gold [2022 BDRip 720p] DUB [Марафон / Кинопоиск HD] bober100 Скачать
1 | 0
Фильмы 2022 [DVDrip, WEB-DLRip, HDrip] (DUB, MVO) [ 1.46 GB ] Жажда золота / Gold [2022 WEB-DLRip] MVO [NewComers] Twi7ter Скачать
5 | 1

28-11-2019 20:33  

Отключить вcю реклaмy на сайте

29-01-2022 12:37 Жажда золота Скачать торрент  

Да уж. Жадность губит. Фильм на 3 по 5ти бальнойpb.wtf



29-04-2022 16:28 Жажда золота Скачать торрент  

viperrr14 писал(а):

Да уж. Жадность губит. Фильм на 3 по 5ти бальной

Спасибо за отзыв и за зря не потраченного времени pb.wtf



    Дорогой пользователь! Огромная просьба, поблагодарите релизера, оцените раздачу и оставьте свои комментарий, если Вы скачали Жажда золота через торрент бесплатно!
    Комментировать посты могут только пользователи прошедшие не сложную регистрацию
    Показать сообщения:    

    Жажда золота через торрент
    Скачать бесплатно Жажда золота
    Жажда золота скачать торрент
    Жажда золота смотреть онлайн
    Cкачать фильм Жажда золота бесплатно
    Жажда золота скачать торрент в хорошем качестве
    Жажда золота смотреть онлайн бесплатно в хорошем качестве


    Вы не можете начинать темы
    Вы не можете отвечать на сообщения
    Вы не можете редактировать свои сообщения
    Вы не можете удалять свои сообщения
    Вы не можете голосовать в опросах
    Вы не можете прикреплять файлы к сообщениям
    Вы можете скачивать файлы