Всегда рабочее зеркало без VPN и Proxy просто перед .vidak.icu напиши любое слово или цифру, Пример http://gt10.vidak.icu

MVO

Лицензия

1 сезон

1

1 сезон

iTunes

1 сезон

13

1 сезон

Deluxe

pack

Рекомендуем

Repack

30

ВАЖНО

RePack

MK11

RePack

jed

RePack

fifa19

RePack

RDR2

RePack

NEED FOR SPEED™ PAYBACK

Кинопоиск HD

6 сезон

 Острые козырьки 6 сезон

Все сериалы

все сериалы на PB.wtf

RePack

FAR CRY 5
  
Magnet ссылка

Вечные / Eternals (Хлоя Чжао) [2021, Фантастика, фэнтези, боевик, драма, приключения, UHD BDRemux 2160p] DUB [iTunes] pb.wtf

Вечные через торрент pb.wtf

Раздают: 2 [ 138 KB/s ]
Размер: 46.57 GB | Добавлен: 5 мес. 8 д. назад | Торрент скачан:221 раз
Смотреть онлайн Вечные | Скачать    Ребята, помогите собрать деньги на оплату серверов!!!

28-01-2022 04:51 Вечные Скачать торрент  

Вечные
Eternals

Год выпуска: 2021
Страна: Великобритания, США
Выпущено: Marvel Studios, TSG Entertainment
Жанр: Фантастика, фэнтези, боевик, драма, приключения
Продолжительность: 02:35:50
Перевод: Дублированный | iTunes
Субтитры: Русские (Forced, full), английские

Режиссер: Хлоя Чжао

rating

В ролях: Джемма Чан, Ричард Мэдден, Анджелина Джоли, Сальма Хайек, Кит Харингтон, Кумэйл Нанджиани, Лиа МакХью, Брайан Тайри Генри, Лорен Ридлофф, Барри Кеоган

Описание: Вечные — представители расы генетически улучшенных суперлюдей, тайно живущих на Земле. Они появились на свет 5 миллионов лет назад в результате экспериментов могущественных целестиалов. Наделённые невероятными суперспособностями, на протяжении тысячелетий они скрывались от человеческой цивилизации,втайне защищая людей от монструозных девиантов. Однако, последние события и действия Таноса заставили их выйти на свет.

Качество: UHD BDRemux 2160p
Формат: MKV

Видео: 3840x2160 at 23.976 fps, MPEG-H HEVC HDR Video, ~ 37300 kbps avg
Аудио #01: 48 kHz, AC3, 5.1, 384 Kbps | iTunes | RUS |
Аудио #02: 48 kHz, TrueHD, 7.1, 4396 Kbps | Оригинал | ENG |
Аудио #02: 48 kHz, AC3, 5.1, 640 Kbps | Оригинал | ENG |
скриншот  скриншот  скриншот  скриншот  скриншот  скриншот  

General
Unique ID : 22127254769846375480635134653962069946 (0x10A58DE3A50E6DA347BEE54DB7D327BA)
Complete name : D:VideoEternals.2021.BDREMUX.2160p.HDR.seleZen.mkv
Format : Matroska
Format version : Version 4
File size : 46.6 GiB
Duration : 2 h 35 min
Overall bit rate mode : Variable
Overall bit rate : 42.8 Mb/s
Movie name : Eternals 2021 from seleZen
Encoded date : UTC 2022-01-28 04:00:56
Writing application : mkvmerge v59.0.0 ('Shining Star') 64-bit
Writing library : libebml v1.4.2 + libmatroska v1.6.4

Video
ID : 1
Format : HEVC
Format/Info : High Efficiency Video Coding
Format profile : Main [email protected]@High
HDR format : SMPTE ST 2086, HDR10 compatible
Codec ID : V_MPEGH/ISO/HEVC
Duration : 2 h 35 min
Bit rate : 37.3 Mb/s
Width : 3 840 pixels
Height : 2 160 pixels
Display aspect ratio : 16:9
Frame rate mode : Constant
Frame rate : 23.976 (24000/1001) FPS
Color space : YUV
Chroma subsampling : 4:2:0 (Type 2)
Bit depth : 10 bits
Bits/(Pixel*Frame) : 0.188
Stream size : 40.6 GiB (87%)
Writing library : ATEME Titan File 3.9.6 (4.9.6.2)
Language : English
Default : Yes
Forced : No
Color range : Limited
Color primaries : BT.2020
Transfer characteristics : PQ
Matrix coefficients : BT.2020 non-constant
Mastering display color pri : Display P3
Mastering display luminance : min: 0.0050 cd/m2, max: 1000 cd/m2

Audio #1
ID : 2
Format : AC-3
Format/Info : Audio Coding 3
Commercial name : Dolby Digital
Codec ID : A_AC3
Duration : 2 h 35 min
Bit rate mode : Constant
Bit rate : 384 kb/s
Channel(s) : 6 channels
Channel layout : L R C LFE Ls Rs
Sampling rate : 48.0 kHz
Frame rate : 31.250 FPS (1536 SPF)
Compression mode : Lossy
Stream size : 428 MiB (1%)
Title : iTunes
Language : Russian
Service kind : Complete Main
Default : Yes
Forced : Yes

Audio #2
ID : 3
Format : MLP FBA 16-ch
Format/Info : Meridian Lossless Packing FBA with 16-channel presentation
Commercial name : Dolby TrueHD with Dolby Atmos
Codec ID : A_TRUEHD
Duration : 2 h 35 min
Bit rate mode : Variable
Bit rate : 4 396 kb/s
Maximum bit rate : 2 400 kb/s
Channel(s) : 8 channels
Channel layout : L R C LFE Ls Rs Lb Rb
Sampling rate : 48.0 kHz
Frame rate : 1 200.000 FPS (40 SPF)
Compression mode : Lossless
Stream size : 4.79 GiB (10%)
Title : Original
Language : English
Default : No
Forced : No
Number of dynamic objects : 13
Bed channel count : 1 channel
Bed channel configuration : LFE

Audio #3
ID : 4
Format : AC-3
Format/Info : Audio Coding 3
Commercial name : Dolby Digital
Codec ID : A_AC3
Duration : 2 h 35 min
Bit rate mode : Constant
Bit rate : 640 kb/s
Channel(s) : 6 channels
Channel layout : L R C LFE Ls Rs
Sampling rate : 48.0 kHz
Frame rate : 31.250 FPS (1536 SPF)
Compression mode : Lossy
Stream size : 713 MiB (1%)
Language : English
Service kind : Complete Main
Default : No
Forced : No

Text #1
ID : 5
Format : UTF-8
Codec ID : S_TEXT/UTF8
Codec ID/Info : UTF-8 Plain Text
Duration : 2 h 35 min
Bit rate : 4 b/s
Count of elements : 117
Stream size : 5.07 KiB (0%)
Title : Forced
Language : Russian
Default : Yes
Forced : Yes

Text #2
ID : 6
Format : UTF-8
Codec ID : S_TEXT/UTF8
Codec ID/Info : UTF-8 Plain Text
Duration : 2 h 33 min
Bit rate : 65 b/s
Count of elements : 1542
Stream size : 73.6 KiB (0%)
Title : Full
Language : Russian
Default : No
Forced : No

Text #3
ID : 7
Format : UTF-8
Codec ID : S_TEXT/UTF8
Codec ID/Info : UTF-8 Plain Text
Duration : 2 h 32 min
Bit rate : 1 b/s
Count of elements : 81
Stream size : 1.78 KiB (0%)
Title : Forced
Language : English
Default : No
Forced : No

Text #4
ID : 8
Format : UTF-8
Codec ID : S_TEXT/UTF8
Codec ID/Info : UTF-8 Plain Text
Duration : 2 h 33 min
Bit rate : 42 b/s
Count of elements : 1786
Stream size : 47.2 KiB (0%)
Title : Full
Language : English
Default : No
Forced : No

Text #5
ID : 9
Format : UTF-8
Codec ID : S_TEXT/UTF8
Codec ID/Info : UTF-8 Plain Text
Duration : 2 h 33 min
Bit rate : 52 b/s
Count of elements : 2212
Stream size : 59.0 KiB (0%)
Title : SDH
Language : English
Default : No
Forced : No

Menu
00:00:00.000 : Глава 01
00:06:43.194 : Глава 02
00:20:22.888 : Глава 03
00:31:11.703 : Глава 04
00:35:04.436 : Глава 05
00:43:01.412 : Глава 06
00:49:29.008 : Глава 07
00:55:50.097 : Глава 08
01:02:29.537 : Глава 09
01:07:56.531 : Глава 10
01:10:39.569 : Глава 11
01:18:58.275 : Глава 12
01:24:36.780 : Глава 13
01:29:56.516 : Глава 14
01:36:03.049 : Глава 15
01:42:47.578 : Глава 16
01:46:27.881 : Глава 17
01:51:51.163 : Глава 18
01:55:57.951 : Глава 19
02:01:46.132 : Глава 20
02:06:30.249 : Глава 21
02:11:41.894 : Глава 22
02:16:32.351 : Глава 23
02:23:10.665 : Глава 24
02:25:45.028 : Глава 25
02:27:56.493 : Глава 26
02:34:27.175 : Глава 27

pb.wtf



Скачать Вечные через торрент https://i5.imageban.ru/out/2022/01/25/fdd1a6716c5d43aedd86be148031607a.png Скачать, смотреть онлайн Вечные бесплантно в хорошем качестве Описание: Вечные — представители расы генетически улучшенных суперлюдей, тайно живущих на Земле. Они появились на свет 5 миллионов лет ... 9.7 10 11
Info! Золотая раздача, скачанное не засчитывается.
Торрент: Зарегистрирован [2022-01-28 04:51] · скачан: 221 раз
Статус: √ проверено
Размер: 46.57 GB
Как cкачать? Как скачать Вечные через торрент | UTorrent

% Раздел Тема Автор DL S | L
Фильмы (WEB-DL 720p, 1080p) [ 12.06 GB ] Вечные / Eternals [2021 WEB-DL 1080p] [Локализованная версия] DUB [Невафильм] bober100 Скачать
2 | 0
Фильмы 2021 [DVDrip, WEB-DLRip, HDrip] (DUB, MVO) [ 2.18 GB ] Вечные / Eternals [2021 WEB-DLRip] [Локализованная версия] DUB [Невафильм] bober100 Скачать
3 | 0
3D Фильмы [ 15.72 GB ] Вечные в 3Д / Eternals 3D [2021 BDRip 1080p] OverUnder / Вертикальная стереопара () serega768 Скачать
1 | 0
Фильмы 2021 [DVDrip, WEB-DLRip, HDrip] (DUB, MVO) [ 2.12 GB ] Вечные / Eternals [2021 BDRip] - Twi7ter Скачать
27 | 0
Фильмы (WEB-DL 720p, 1080p) [ 4.82 GB ] Вечные / Eternals [2021 WEB-DL 720p] [IMAX Edition] bober100 Скачать
4 | 0
Фильмы [HD 720p, 1080p] (Хороший звук DUB, MVO) [ 14.87 GB ] Вечные / Eternals [2021 BDRip 1080p] DUB +MVO [HDRezka Studio] bober100 Скачать
1 | 0
Фильмы (WEB-DL 720p, 1080p) [ 8.39 GB ] Вечные / Eternals [2021 WEB-DL 1080p] [IMAX Edition] bober100 Скачать
4 | 0

28-11-2019 20:33  

Отключить всю рекламу на сайте

03-02-2022 16:41 Вечные Скачать торрент  

плюсы масштабно динамично минусы пропаганда гомосексуализма

pb.wtf



06-02-2022 15:55 Вечные Скачать торрент  

фильм про сбежавших психов гомосексуалов воображающими себя супер героямиpb.wtf



    Дорогой пользователь! Огромная просьба, поблагодарите релизера, оцените раздачу и оставьте свои комментарий, если Вы скачали Вечные через торрент бесплатно!
    Комментировать посты могут только пользователи прошедшие не сложную регистрацию
    Показать сообщения:    

    Вечные через торрент
    Скачать бесплатно Вечные
    Вечные скачать торрент
    Вечные смотреть онлайн
    Cкачать фильм Вечные бесплатно
    Вечные скачать торрент в хорошем качестве
    Вечные смотреть онлайн бесплатно в хорошем качестве


    Вы не можете начинать темы
    Вы не можете отвечать на сообщения
    Вы не можете редактировать свои сообщения
    Вы не можете удалять свои сообщения
    Вы не можете голосовать в опросах
    Вы не можете прикреплять файлы к сообщениям
    Вы можете скачивать файлы