Лицензия

MVO

1

1 сезон

Лицензия

Лицензия

13

MVO

1 сезон

Deluxe Edition

pack

Рекомендуем

30

Repack

ВАЖНО

ВАЖНО

Ghostwire

RePack

jed

RePack

fifa19

RePack

RDR2

RePack

NEED FOR SPEED™ PAYBACK

RePack

Кинопоиск HD

 Острые козырьки 6 сезон

6 сезон

FAR CRY 6

RePack

Лицензия

MVO

1

1 сезон

1 сезон

Лицензия

  

Засланец из космоса / Resident Alien / Сезон: 2 / Серии: 1-14 из 16 (Дэвид Добкин) [2022, фантастика, драма, комедия, детектив, WEB-DL (HEVC)1080p] 2x [MVO] (HDRezka Studio, Kravec) + [DVO] (Кубик в Кубе) + 2x [Ukr MVO]

Засланец из космоса через торрент pb.wtf

Раздают: 1 [ 0 KB/s ]
Размер: 28.73 GB | Добавлен: 2 д. 14 ч. назад | Торрент скачан:4 раза
Смотреть онлайн Засланец из космоса | Скачать   

28-01-2022 14:16 Засланец из космоса Скачать торрент  

Засланец из космоса / Resident Alien

✦ Год выпуска: 2022
✦ Страна: США
✦ Жанр: фантастика, драма, комедия, детектив
✦ Продолжительность: 00:45:00
✦ Перевод #1: Профессиональный (многоголосый закадровый) HDRezka Studio
✦ Перевод #2: Профессиональный (многоголосый закадровый) Кравец
✦ Перевод #3: Профессиональный (двухголосый закадровый) Кубик в Кубе
✦ Перевод #4: Украинский (профессиональный, многоголосный)
✦ Перевод #5: Украинский (профессиональный, многоголосный) "Цікава Ідея"
✦ Субтитры: русские (forced, full), украинские (forced), английские

Режиссёр: Дэвид Добкин, Шеннон Коли, Дженнифер Фанг

В ролях: Алан Тьюдик, Сара Томко, Кори Рейнольдс, Элис Веттерлунд, Леви Филер, Линда Хэмилтон, Элизабет Бауэн, Манделл Мофан, Алекс Барима, Дженна Ламия

Описание: Инопланетный пришелец, прилетевший на Землю с важной миссией, терпит крушение в горах Колорадо вблизи небольшого городка Пейшенс, из-за чего вынужден задержаться здесь немногим больше, чем планировалось. Приняв облик местного врача Гарри Вендершпигля, живущего в домике у озера, он начинает работать в больнице, где расследует убийство, черпая информацию из сериала «Закон и порядок». Ситуация принимает неожиданный поворот, когда сын мэра по имени Макс оказывается способен видеть подлинную внешность инопланетянина сквозь иллюзию, а сам он начинает испытывать чувства к земной женщине...

rating


✦ Качество: WEB-DL (HEVC) 1080p
✦ Формат: MKV
✦ Видео: HEVC , 1920x1080, ~ 3 700 kbps/s, 23,976 fps
✦ Аудио #1 Rus: 48 kHz, AC3, 6 ch, 448 kbps | HDRezka Studio (1-14 серии)
✦ Аудио #2 Rus: 48 kHz, AC3, 6 ch, 448 kbps | Кравец (1-14 серии )
✦ Аудио #3 Rus: 48 kHz, AC3, 6 ch, 448 kbps | Кубик в Кубе (1-14 серии)
✦ Аудио #4 Ukr: 48 kHz, AC3, 6 ch, 384 kbps | DniproFilm (1-13 серии)
✦ Аудио #5 Ukr: 48 kHz, AC3, 6 ch, 448 kbps | "Цікава Ідея" (1-14 серии)
✦ Аудио #6 Eng: 48 kHz, E-AC3, 6 ch, 640 kbps | оригинал
скриншот  скриншот  скриншот  скриншот  скриншот  
General
Unique ID : 196164157187132417979367101527041943041 (0x9393D7A9C4D8998AA0604F9355E2A601)
Complete name : F:\Resident Alien.s02.WEB-DL(HEVC)1080p.xz\Resident Alien.S02E01.WEB-DL(HEVC)1080p.2x[MVO](HDRezka Studio, Kravec), [DVO](KvK), 2x[Ukr].xz.mkv
Format : Matroska
Format version : Version 4
File size : 2.02 GiB
Duration : 46 min 7 s
Overall bit rate : 6 282 kb/s
Movie name : Resident Alien.S02E01.WEB-DL(HEVC)1080p.2x[MVO](HDRezka Studio, Kravec), [DVO](KvK), 2x[Ukr].xz
Encoded date : UTC 2022-01-28 14:05:31
Writing application : mkvmerge v6.1.0 ('Old Devil') built on Mar 2 2013 14:32:37
Writing library : libebml v1.3.0 + libmatroska v1.4.0 / Lavf58.44.100

Video
ID : 1
Format : HEVC
Format/Info : High Efficiency Video Coding
Format profile : [email protected]@Main
Codec ID : V_MPEGH/ISO/HEVC
Duration : 46 min 7 s
Bit rate : 3 341 kb/s
Width : 1 920 pixels
Height : 1 080 pixels
Display aspect ratio : 16:9
Frame rate mode : Constant
Frame rate : 23.976 (24000/1001) FPS
Color space : YUV
Chroma subsampling : 4:2:0
Bit depth : 8 bits
Bits/(Pixel*Frame) : 0.067
Stream size : 1.08 GiB (53%)
Title : Resident Alien.S02E01.WEB-DL(HEVC)1080p.2x[MVO](HDRezka Studio, Kravec), [DVO](KvK), 2x[Ukr].xz
Writing library : x265 3.2:[Windows][GCC 9.2.0][64 bit] 8bit
Encoding settings : cpuid=1049583 / frame-threads=2 / numa-pools=4 / wpp / no-pmode / no-pme / no-psnr / no-ssim / log-level=2 / input-csp=1 / input-res=1920x1080 / interlace=0 / total-frames=0 / level-idc=0 / high-tier=1 / uhd-bd=0 / ref=2 / no-allow-non-conformance / no-repeat-headers / annexb / no-aud / no-hrd / info / hash=0 / no-temporal-layers / open-gop / min-keyint=2 / keyint=24 / gop-lookahead=0 / bframes=0 / b-adapt=0 / no-b-pyramid / bframe-bias=0 / rc-lookahead=15 / lookahead-slices=6 / scenecut=40 / radl=0 / no-splice / no-intra-refresh / ctu=64 / min-cu-size=8 / no-rect / no-amp / max-tu-size=32 / tu-inter-depth=1 / tu-intra-depth=1 / limit-tu=0 / rdoq-level=0 / dynamic-rd=0.00 / no-ssim-rd / signhide / no-tskip / nr-intra=0 / nr-inter=0 / no-constrained-intra / strong-intra-smoothing / max-merge=2 / limit-refs=3 / no-limit-modes / me=1 / subme=1 / merange=57 / temporal-mvp / no-hme / weightp / no-weightb / no-analyze-src-pics / deblock=0:0 / sao / no-sao-non-deblock / rd=2 / selective-sao=4 / early-skip / rskip / fast-intra / no-tskip-fast / no-cu-lossless / no-b-intra / no-splitrd-skip / rdpenalty=0 / psy-rd=2.00 / psy-rdoq=0.00 / no-rd-refine / no-lossless / cbqpoffs=0 / crqpoffs=0 / rc=cbr / bitrate=3500 / qcomp=0.60 / qpstep=4 / stats-write=0 / stats-read=0 / vbv-maxrate=3500 / vbv-bufsize=5250 / vbv-init=0.8 / ipratio=1.40 / aq-mode=2 / aq-strength=1.00 / cutree / zone-count=0 / no-strict-cbr / qg-size=32 / no-rc-grain / qpmax=69 / qpmin=0 / no-const-vbv / sar=1 / overscan=0 / videoformat=5 / range=1 / colorprim=2 / transfer=2 / colormatrix=2 / chromaloc=0 / display-window=0 / cll=0,0 / min-luma=0 / max-luma=255 / log2-max-poc-lsb=8 / vui-timing-info / vui-hrd-info / slices=1 / no-opt-qp-pps / no-opt-ref-list-length-pps / no-multi-pass-opt-rps / scenecut-bias=0.05 / no-opt-cu-delta-qp / no-aq-motion / no-hdr / no-hdr-opt / no-dhdr10-opt / no-idr-recovery-sei / analysis-reuse-level=5 / scale-factor=0 / refine-intra=0 / refine-inter=0 / refine-mv=1 / refine-ctu-distortion=0 / no-limit-sao / ctu-info=0 / no-lowpass-dct / refine-analysis-type=0 / copy-pic=1 / max-ausize-factor=1.0 / no-dynamic-refine / no-single-sei / no-hevc-aq / no-svt / no-field / qp-adaptation-range=1.00
Default : Yes
Forced : No
Color range : Full
Duration_Source : General_Duration

Audio #1
ID : 2
Format : AC-3
Format/Info : Audio Coding 3
Commercial name : Dolby Digital
Codec ID : A_AC3
Duration : 46 min 7 s
Bit rate mode : Constant
Bit rate : 448 kb/s
Channel(s) : 6 channels
Channel layout : L R C LFE Ls Rs
Sampling rate : 48.0 kHz
Frame rate : 31.250 FPS (1536 SPF)
Compression mode : Lossy
Stream size : 148 MiB (7%)
Title : HDRezka Studio
Language : Russian
Service kind : Complete Main
Default : Yes
Forced : No
Duration_Source : General_Duration

Audio #2
ID : 3
Format : AC-3
Format/Info : Audio Coding 3
Commercial name : Dolby Digital
Codec ID : A_AC3
Duration : 46 min 7 s
Bit rate mode : Constant
Bit rate : 448 kb/s
Channel(s) : 6 channels
Channel layout : L R C LFE Ls Rs
Sampling rate : 48.0 kHz
Frame rate : 31.250 FPS (1536 SPF)
Compression mode : Lossy
Stream size : 148 MiB (7%)
Title : Kravec
Language : Russian
Service kind : Complete Main
Default : No
Forced : No
Duration_Source : General_Duration

Audio #3
ID : 4
Format : AC-3
Format/Info : Audio Coding 3
Commercial name : Dolby Digital
Codec ID : A_AC3
Duration : 46 min 7 s
Bit rate mode : Constant
Bit rate : 448 kb/s
Channel(s) : 6 channels
Channel layout : L R C LFE Ls Rs
Sampling rate : 48.0 kHz
Frame rate : 31.250 FPS (1536 SPF)
Compression mode : Lossy
Stream size : 148 MiB (7%)
Title : KvK
Language : Russian
Service kind : Complete Main
Default : No
Forced : No
Duration_Source : General_Duration

Audio #4
ID : 5
Format : AC-3
Format/Info : Audio Coding 3
Commercial name : Dolby Digital
Codec ID : A_AC3
Duration : 46 min 7 s
Bit rate mode : Constant
Bit rate : 384 kb/s
Channel(s) : 6 channels
Channel layout : L R C LFE Ls Rs
Sampling rate : 48.0 kHz
Frame rate : 31.250 FPS (1536 SPF)
Compression mode : Lossy
Stream size : 127 MiB (6%)
Title : DniproFilm
Language : Ukrainian
Service kind : Complete Main
Default : No
Forced : No
Duration_Source : General_Duration

Audio #5
ID : 6
Format : AC-3
Format/Info : Audio Coding 3
Commercial name : Dolby Digital
Codec ID : A_AC3
Duration : 46 min 7 s
Bit rate mode : Constant
Bit rate : 448 kb/s
Channel(s) : 6 channels
Channel layout : L R C LFE Ls Rs
Sampling rate : 48.0 kHz
Frame rate : 31.250 FPS (1536 SPF)
Compression mode : Lossy
Stream size : 148 MiB (7%)
Title : Cikava Ideya
Language : Ukrainian
Service kind : Complete Main
Default : No
Forced : No
Duration_Source : General_Duration

Audio #6
ID : 7
Format : E-AC-3
Format/Info : Enhanced AC-3
Commercial name : Dolby Digital Plus
Codec ID : A_EAC3
Duration : 46 min 7 s
Bit rate mode : Constant
Bit rate : 640 kb/s
Channel(s) : 6 channels
Channel layout : L R C LFE Ls Rs
Sampling rate : 48.0 kHz
Frame rate : 31.250 FPS (1536 SPF)
Compression mode : Lossy
Stream size : 211 MiB (10%)
Title : Eng
Language : English
Service kind : Complete Main
Default : No
Forced : No
Duration_Source : General_Duration

Text #1
ID : 8
Format : UTF-8
Codec ID : S_TEXT/UTF8
Codec ID/Info : UTF-8 Plain Text
Title : rus (forced)
Language : Russian
Default : No
Forced : No

Text #2
ID : 9
Format : UTF-8
Codec ID : S_TEXT/UTF8
Codec ID/Info : UTF-8 Plain Text
Title : rus (full)
Language : Russian
Default : No
Forced : No

Text #3
ID : 10
Format : UTF-8
Codec ID : S_TEXT/UTF8
Codec ID/Info : UTF-8 Plain Text
Title : ukr (forced)
Language : Ukrainian
Default : No
Forced : No

Text #4
ID : 11
Format : UTF-8
Codec ID : S_TEXT/UTF8
Codec ID/Info : UTF-8 Plain Text
Title : Eng
Language : English
Default : No
Forced : No
Внимание! Раздача ведётся путём добавления новых серий; при каждом добавлении создаётся новый торрент.
Чтобы начать докачку новой серии, пользователям необходимо сделать следующее:
1. Остановить скачивание.
2. Удалить старый торрент у себя из клиента (старые серии удалять не надо).
3. Скачать новый торрент и запустить его у себя в клиенте вместо старого, при этом указать клиенту путь в старую папку куда и должно происходить скачивание новых серий.
Ваш клиент при этом должен произвести хеширование (проверку) старой папки (если не производит сам - помогите ему сделать это), и будет докачивать только те серии которых у вас ещё нет. Старые серии при этом не удаляются, а продолжают раздаваться!
Eсли вы уже удалили старые серии, то предотвратить повторную закачку старых серий можно, отжав галочку в соответствующих местах при запуске нового торрента.



Скачать Засланец из космоса через торрент https://i116.fastpic.org/big/2022/0128/3e/eb7874ad2f4939aeb466319695cc903e.jpg Скачать, смотреть онлайн Засланец из космоса бесплантно в хорошем качестве Описание: Инопланетный пришелец, прилетевший на Землю с важной миссией, терпит крушение в горах Колорадо вблизи небольшого городка Пейшенс, ... 7.8 10 12
Торрент: Зарегистрирован [2022-09-22 14:51] · скачан: 4 раз
Статус: √ проверено
Размер: 28.73 GB
Как cкачать? Как скачать Засланец из космоса через торрент | UTorrent

% Раздел Тема Автор DL S | L
* Зарубежные сериалы [ 16.76 GB ] Засланец из космоса / Resident Alien / Сезон: 2 / Серии 1-15 из 16 | LostFilm | DLRip-AVC GEKADOL Скачать
3 | 1



Последний раз редактировалось: killermax2013 (2022-09-22 14:51), всего редактировалось 10 раз(а)

28-11-2019 20:33  

Отключить вcю реклaмy на сайте

24-03-2022 19:09 Засланец из космоса Скачать торрент  

сьемки сериала приостановлены, продолжение ориентировочно в августе



08-04-2022 20:09 Засланец из космоса Скачать торрент  

эх печалька а я сижу жду



14-04-2022 20:55 Засланец из космоса Скачать торрент  

killermax2013 писал(а):

сьемки сериала приостановлены, продолжение ориентировочно в августе

эээээ вот же ж козлы



    Дорогой пользователь! Огромная просьба, поблагодарите релизера, оцените раздачу и оставьте свои комментарий, если Вы скачали Засланец из космоса через торрент бесплатно!!
    Комментировать посты могут только пользователи прошедшие не сложную регистрацию
    Показать сообщения:    


    Засланец из космоса через торрент
    Скачать бесплатно Засланец из космоса
    Засланец из космоса скачать торрент
    Засланец из космоса смотреть онлайн
    Cкачать фильм Засланец из космоса бесплатно
    Засланец из космоса скачать торрент в хорошем качестве
    Засланец из космоса смотреть онлайн бесплатно в хорошем качестве
    Вы не можете начинать темы
    Вы не можете отвечать на сообщения
    Вы не можете редактировать свои сообщения
    Вы не можете удалять свои сообщения
    Вы не можете голосовать в опросах
    Вы не можете прикреплять файлы к сообщениям
    Вы можете скачивать файлы