Доктор Стрэндж

Лицензия

Добыча

Дубляж

Уэнсдэй

1 сезон

Тор

Дубляж

В эфире

Дубляж

Там, где раки поют

MVO

Властелин колец

1 сезон

Deluxe

pack

Рекомендуем

30

Пиратка

ВАЖНО

ВАЖНО

Ghostwire

Пиратка

jed

RePack

nioh2

RePack

RDR2

RePack

NEED FOR SPEED™ PAYBACK

RePack

скачать торрент

Кинопоиск HD

Острые козырьки 6 сезон

6 сезон

FAR CRY 6

RePack

скачать торрент

Лицензия

скачать торрент

MVO

1

1 сезон

скачать торрент

1 сезон

скачать торрент

Лицензия

  

Засланец из космоса / Resident Alien / Сезон: 2 / Серии 1-16 из 16 (Дэвид Добкин, Дженнифер Фанг, Шеннон Коли) [2022, США, Комедия, Драма, Детектив, Фантастика, WEB-DLRip-AVC] 3x MVO [LostFilm, AlexFilm, HDRezka]

Засланец из космоса через торрент pb.wtf

Качают: 3 [ 0 KB/s ]
Размер: 18.05 GB | Добавлен: 2 мес. 5 д. назад | Торрент скачан:33 раза
Смотреть онлайн | Скачать   

29-01-2022 00:11 Засланец из космоса Скачать торрент  

Засланец из космоса / Resident Alien


  • Год выпуска: 2022
  • Страна: США
  • Жанр: Комедия, Драма, Детектив, Фантастика
  • Продолжительность: ~ 00:45:00 (Серия)
  • Перевод: Профессиональный многоголосый [LostFilm, AlexFilm, HDRezka]
  • Субтитры: Русские (Forced |HDRezka|)
  • Режиссер: Дэвид Добкин, Дженнифер Фанг, Шеннон Коли
  • В ролях:
    Алан Тьюдик, Сара Томко, Леви Филер, Кори Рейнольдс, Элизабет Бауэн, Элис Веттерлунд, Мередит Аутри, Кэйлайла Рэйн, Манделл Мофан, Иуда Прен и др.
    Описание:
    Инопланетянин, отправленный на Землю для уничтожения человечества, пережил крушение корабля и вынужден скрываться в забытом богом городке штата Колорадо под личиной доктора Гарри Вандершпигеля (Alan_Tudyk/Алан Тьюдик), пока не найдет потерянное устройство, с помощью которого сможет завершить миссию. Однако скрытное существование пришельца среди заснеженных лесов нарушает местный шериф Майк Томпсон (Corey_Reynolds/Кори Рейнольдс), требующий, чтобы лжедоктор Вандершпигель провел диагностику тела таинственным образом убитого городского врача. Так инопланетянин оказывается втянут в запутанную детективную историю и жизнь обитателей городка Пэйшенс. Теперь ему в дополнение к незаконченной миссии придется познать все трудности ассимиляции в человеческом обществе.
  • Рейтинг:

    rating


  • Качество: WEB-DLRip-AVC
  • Формат: :MKV
  • Видео кодек: AVC
  • Аудио кодек: AC3
  • Видео: 1497 Кбит/сек, 1024*576 (16:9), в 23,976 (24000/1001) кадра/сек, AVC
  • Аудио №1: Русский 384 Кбит/сек, 48,0 КГц, 16 бит, 2 канала, AC-3|[LostFilm]| Серии - 1-16
  • Аудио №2: Русский 448 Кбит/сек, 48,0 КГц, 16 бит, 6 каналов, AC-3|[AlexFilm]| Серии - 1-16
  • Аудио №3: Русский 448 Кбит/сек, 48,0 КГц, 16 бит, 6 каналов, AC-3|[HDRezka] - версия озвучки с цензурой| Серии - 1-16
  • Аудио №4: Русский 448 Кбит/сек, 48,0 КГц, 16 бит, 6 каналов, AC-3|[HDRezka] - версия озвучки без цензуры| Серии - 1-16
  • Аудио №5: Английский 448 Кбит/сек, 48,0 КГц, 16 бит, 6 каналов, AC-3
    «Засланец из космоса» — сериал телеканала Syfy, снятый по мотивам серии одноименных комиксов Питера Хогана и Стива Паркхауса. Шоу позиционируется как проект на стыке жанров научной фантастики, детектива, комедии и драмы. В большом кино и на ТВ Землю и все человечество неоднократно пытались уничтожить более развитые инопланетные расы, но в этот раз у ответственного за уничтожение людей пришельца все пошло не по плану с самого начала, поэтому вместо стандартного экшена и борьбы за выживание зритель понаблюдает за тем, как незадачливый вторженец будет выпутываться из сложившихся обстоятельств, чтобы завершить свою земную миссию. В роли коварного инопланетянина, волею судеб примерившего человеческую оболочку, выступил комик Alan_Tudyk/Алан Тьюдик («Firefly/Светлячок», «Doom_Patrol/Роковой патруль»), а компанию на экране ему составили Sara_Tomko/Сара Томко («Once_Upon_a_Time/Однажды в сказке»), Levi_Fiehler/Леви Филер, Corey_Reynolds/Кори Рейнольдс и другие.
    Внимание! Раздача ведётся путём добавления новых серий; при каждом добавлении создаётся новый торрент. Чтобы начать докачку новой серии, пользователям необходимо сделать следующее:
    (1) остановить скачивание,
    (2) удалить старый торрент у себя из клиента (старые серии удалять не надо),
    (3) скачать новый торрент и запустить его у себя в клиенте вместо старого, при этом указать клиенту путь в старую папку куда и должно происходить скачивание новых серий.

    Ваш клиент при этом должен произвести хеширование (проверку) старой папки (если не производит сам - помогите ему сделать это), и будет докачивать только те серии которых у вас ещё нет. Старые серии при этом не удаляются, а продолжают раздаваться!

    Eсли вы уже удалили старые серии, то предотвратить повторную закачку старых серий можно, отжав галочку в соответствующих местах при запуске нового торрента. По возможности, желательно не удалять старые серии как можно дольше чтобы релизёр не столько продолжал раздавать старые серии, а смог сконцентрироваться на новых.
    Общее
    Уникальный идентификатор : 190083359470832010148002567546954855153 (0x8F00B93050542D372F83327E044032F1)
    Полное имя : G:\Засланец из космоса (Resident Alien) Сезон 2\Засланец из космоса - Resident Alien.s02e01.(Старые друзья - Old Friends).WEB-DLRip-AVC.LostFilm AlexFilm HDRezka.mkv
    Формат : Matroska
    Версия формата : Version 4
    Размер файла : 1,20 Гбайт
    Продолжительность : 45 м. 46 с.
    Общий поток : 3747 Кбит/сек
    Программа кодирования : XviD4PSP 8.0.59
    Библиотека кодирования : Lavf58.20.100
    ErrorDetectionType : Per level 1
    ENCODING_INFO : MATROSKA,WEBM > MKV Пользовательский

    Видео
    Идентификатор : 1
    Формат : AVC
    Формат/Информация : Advanced Video Codec
    Профиль формата : [email protected]
    Настройки формата : CABAC / 4 Ref Frames
    Параметр CABAC формата : Да
    Параметр RefFrames формата : 4 кадра
    Идентификатор кодека : V_MPEG4/ISO/AVC
    Продолжительность : 45 м. 46 с.
    Битрейт : 1497 Кбит/сек
    Номинальный битрейт : 1800 Кбит/сек
    Ширина : 1024 пикселя
    Высота : 576 пикселей
    Соотношение сторон : 16:9
    Режим частоты кадров : Постоянный
    Частота кадров : 23,976 (24000/1001) кадра/сек
    Цветовое пространство : YUV
    Субдискретизация насыщенности : 4:2:0
    Битовая глубина : 8 бит
    Тип развёртки : Прогрессивная
    Бит/(Пиксели*Кадры) : 0.106
    Размер потока : 490 Мбайт (40%)
    Библиотека кодирования : x264 core 157 r2969 d4099dd
    Настройки программы : cabac=1 / ref=3 / deblock=1:-1:-1 / analyse=0x3:0x133 / me=hex / subme=7 / psy=1 / psy_rd=1.00:0.20 / mixed_ref=1 / me_range=16 / chroma_me=1 / trellis=1 / 8x8dct=1 / cqm=0 / deadzone=21,11 / fast_pskip=1 / chroma_qp_offset=-3 / threads=9 / lookahead_threads=1 / sliced_threads=0 / nr=0 / decimate=1 / interlaced=0 / bluray_compat=0 / constrained_intra=0 / bframes=3 / b_pyramid=2 / b_adapt=2 / b_bias=0 / direct=3 / weightb=1 / open_gop=0 / weightp=2 / keyint=240 / keyint_min=24 / scenecut=40 / intra_refresh=0 / rc_lookahead=40 / rc=cbr / mbtree=1 / bitrate=1800 / ratetol=1.0 / qcomp=0.60 / qpmin=0 / qpmax=69 / qpstep=4 / vbv_maxrate=1800 / vbv_bufsize=1285 / nal_hrd=none / filler=0 / ip_ratio=1.40 / aq=1:1.00
    Язык : English
    Default : Да
    Forced : Нет
    Цветовой диапазон : Limited
    Основные цвета : BT.709
    Характеристики трансфера : BT.709
    Коэффициенты матрицы : BT.709
    ENCODING_INFO : H264 > X264 CBR 1800kbps HQ

    Аудио #1
    Идентификатор : 2
    Формат : AC-3
    Формат/Информация : Audio Coding 3
    Коммерческое название : Dolby Digital
    Идентификатор кодека : A_AC3
    Продолжительность : 45 м. 46 с.
    Вид битрейта : Постоянный
    Битрейт : 384 Кбит/сек
    Каналы : 2 канала
    ChannelLayout : L R
    Частота : 48,0 КГц
    Частота кадров : 31,250 кадров/сек (1536 SPF)
    Битовая глубина : 16 бит
    Метод сжатия : С потерями
    Размер потока : 126 Мбайт (10%)
    Заголовок : LF
    Язык : Russian
    ServiceKind/String : Complete Main
    Default : Да
    Forced : Нет
    ENCODING_INFO : AC3 > AC3 CBR 384kbps

    Аудио #2
    Идентификатор : 3
    Формат : AC-3
    Формат/Информация : Audio Coding 3
    Коммерческое название : Dolby Digital
    Идентификатор кодека : A_AC3
    Продолжительность : 45 м. 46 с.
    Вид битрейта : Постоянный
    Битрейт : 448 Кбит/сек
    Каналы : 6 каналов
    ChannelLayout : L R C LFE Ls Rs
    Частота : 48,0 КГц
    Частота кадров : 31,250 кадров/сек (1536 SPF)
    Битовая глубина : 16 бит
    Метод сжатия : С потерями
    Размер потока : 147 Мбайт (12%)
    Заголовок : AF
    Язык : Russian
    ServiceKind/String : Complete Main
    Default : Нет
    Forced : Нет
    ENCODING_INFO : AC3 > AC3 CBR 448kbps

    Аудио #3
    Идентификатор : 4
    Формат : AC-3
    Формат/Информация : Audio Coding 3
    Коммерческое название : Dolby Digital
    Идентификатор кодека : A_AC3
    Продолжительность : 45 м. 46 с.
    Вид битрейта : Постоянный
    Битрейт : 448 Кбит/сек
    Каналы : 6 каналов
    ChannelLayout : L R C LFE Ls Rs
    Частота : 48,0 КГц
    Частота кадров : 31,250 кадров/сек (1536 SPF)
    Битовая глубина : 16 бит
    Метод сжатия : С потерями
    Размер потока : 147 Мбайт (12%)
    Заголовок : HDr
    Язык : Russian
    ServiceKind/String : Complete Main
    Default : Нет
    Forced : Нет
    ENCODING_INFO : AC3 > AC3 CBR 448kbps

    Аудио #4
    Идентификатор : 5
    Формат : AC-3
    Формат/Информация : Audio Coding 3
    Коммерческое название : Dolby Digital
    Идентификатор кодека : A_AC3
    Продолжительность : 45 м. 46 с.
    Вид битрейта : Постоянный
    Битрейт : 448 Кбит/сек
    Каналы : 6 каналов
    ChannelLayout : L R C LFE Ls Rs
    Частота : 48,0 КГц
    Частота кадров : 31,250 кадров/сек (1536 SPF)
    Битовая глубина : 16 бит
    Метод сжатия : С потерями
    Размер потока : 147 Мбайт (12%)
    Заголовок : HDr 18+
    Язык : Russian
    ServiceKind/String : Complete Main
    Default : Нет
    Forced : Нет
    ENCODING_INFO : AC3 > AC3 CBR 448kbps

    Аудио #5
    Идентификатор : 6
    Формат : AC-3
    Формат/Информация : Audio Coding 3
    Коммерческое название : Dolby Digital
    Идентификатор кодека : A_AC3
    Продолжительность : 45 м. 46 с.
    Вид битрейта : Постоянный
    Битрейт : 448 Кбит/сек
    Каналы : 6 каналов
    ChannelLayout : L R C LFE Ls Rs
    Частота : 48,0 КГц
    Частота кадров : 31,250 кадров/сек (1536 SPF)
    Битовая глубина : 16 бит
    Метод сжатия : С потерями
    Размер потока : 147 Мбайт (12%)
    Заголовок : Eng
    Язык : English
    ServiceKind/String : Complete Main
    Default : Нет
    Forced : Нет
    ENCODING_INFO : EAC3 > AC3 CBR 448kbps

    Текст
    Идентификатор : 7
    Формат : UTF-8
    Идентификатор кодека : S_TEXT/UTF8
    Идентификатор кодека/Информация : UTF-8 Plain Text
    Заголовок : Forc
    Язык : Russian
    Default : Да
    Forced : Нет
    ENCODING_INFO : SUBRIP > SUBRIP



    Скриншоты:
    скриншот   скриншот   скриншот   скриншот   скриншот   скриншот   скриншот   
    скриншот  



  • Скачать Засланец из космоса через торрент https://i4-imageban-ru.translate.goog/out/2022/01/29/7f75f7502259c65f3f25f195f7cd1c8d.png Скачать, смотреть онлайн Засланец из космоса бесплантно в хорошем качестве Описание:Инопланетянин, отправленный на Землю для уничтожения человечества, пережил крушение корабля и вынужден скрываться в забытом богом ... 10 10 13
    Info! Золотая раздача, скачанное не засчитывается.
    Торрент: Зарегистрирован [2022-10-01 00:17] · скачан: 33 раз
    Статус: √ проверено
    Размер: 18.05 GB
    Как cкачать? Как скачать Засланец из космоса через торрент | UTorrent

    % Раздел Тема Автор DL S | L
    Зарубежные сериалы [ 5.42 GB ] Засланец из космоса / Местный пришелец / Resident Alien / Сезон: 1 / Серии: 1-10 из 10 | MVO | WEBRip bober100 Скачать
    1 | 0
    Зарубежные сериалы [ 31.83 GB ] Засланец из космоса / Местный пришелец / Resident Alien / Сезон: 1 / Серии: 1-10 из 10 | MVO | 1080p bober100 Скачать
    1 | 0
    Зарубежные сериалы [ 7.29 GB ] Засланец из космоса / Resident Alien / Сезон: 1 / Серии 1-10 из 10 | LostFilm | DLRip-AVC GEKADOL Скачать
    3 | 0
    Зарубежные сериалы [ 5.42 GB ] Засланец из космоса / Resident Alien / Сезон: 1 / Серии: 1-10 из 10 | MVO | WEBRip killermax2013 Скачать
    2 | 0
    Зарубежные сериалы [ 6.64 GB ] Засланец из космоса / Местный пришелец / Resident Alien / Сезон: 1 / Серии: 1-10 из 10 | MVO | DLRip bober100 Скачать
    1 | 1
    Зарубежные сериалы [ 32.04 GB ] Засланец из космоса / Местный пришелец / Resident Alien / Сезон: 1 / Серии: 1-10 из 10 | MVO | 1080p bober100 Скачать
    1 | 0
    Зарубежные сериалы [ 34.35 GB ] Засланец из космоса / Местный пришелец / Resident Alien / Сезон: 1 / Серии: 1-10 из 10 | LostFilm | 1080p bober100 Скачать
    1 | 0



    Последний раз редактировалось: GEKADOL (2022-10-01 00:17), всего редактировалось 19 раз(а)

    28-11-2019 20:33  


    Отключить вcю реклaмy на сайте, в т.ч. и в плеере онлайн просмотра!

      Дорогой пользователь! Огромная просьба, поблагодарите релизера, оцените раздачу и оставьте свои комментарий, если Вы скачали Засланец из космоса через торрент бесплатно!!
      Комментировать посты могут только пользователи прошедшие не сложную регистрацию
      Показать сообщения:    


      Засланец из космоса через торрент
      Скачать бесплатно Засланец из космоса
      Засланец из космоса скачать торрент
      Засланец из космоса смотреть онлайн
      Cкачать фильм Засланец из космоса бесплатно
      Засланец из космоса скачать торрент в хорошем качестве
      Засланец из космоса смотреть онлайн бесплатно в хорошем качестве
      Вы не можете начинать темы
      Вы не можете отвечать на сообщения
      Вы не можете редактировать свои сообщения
      Вы не можете удалять свои сообщения
      Вы не можете голосовать в опросах
      Вы не можете прикреплять файлы к сообщениям
      Вы можете скачивать файлы
      Засланец из космоса / Resident Alien / Сезон: 2 / Серии 1-16 из 16 [2022, США, Комедия, Драма, Детектив, Фантастика, WEB-DLRip-AVC] 3x MVO [LostFilm, AlexFilm, HDRezka] смотреть онлайн, скачать торрент picoco.icu