Доктор Стрэндж

Лицензия

Добыча

Дубляж

Уэнсдэй

1 сезон

Тор

Дубляж

В эфире

Дубляж

Там, где раки поют

MVO

Властелин колец

1 сезон

Deluxe

pack

Рекомендуем

30

Пиратка

ВАЖНО

ВАЖНО

Ghostwire

Пиратка

jed

RePack

nioh2

RePack

RDR2

RePack

NEED FOR SPEED™ PAYBACK

RePack

скачать торрент

Кинопоиск HD

Острые козырьки 6 сезон

6 сезон

FAR CRY 6

RePack

скачать торрент

Лицензия

скачать торрент

MVO

1

1 сезон

скачать торрент

1 сезон

скачать торрент

Лицензия

  

Засланец из космоса / Местный пришелец / Resident Alien / Сезон: 2 / Серии: 1-16 из 16 (Роберт Данкан МакНил, Джей Чандрашекхар, Шеннон Коли) [2022, Фантастика, драма, комедия, детектив, WEB-DL 1080p] MVO [AlexFilm]

Засланец из космоса через торрент pb.wtf

Размер: 49.72 GB | Добавлен: 2 мес. 6 д. назад | Торрент скачан:21 раз
Смотреть онлайн | Скачать   

29-01-2022 03:34 Засланец из космоса Скачать торрент  

Засланец из космоса | Местный пришелец
Resident Alien

«The sci-fi murder mystery doctor dramedy Earth needs now»
Год выпуска: 2022
Страна: США
Выпущено: Universal Cable Productions, Dark Horse Entertainment, Amblin Television
Жанр: фантастика, драма, комедия, детектив
Премьера (мир): 27 января 2021
Продолжительность: ~ 00:46:00 серия
Перевод: Профессиональный (многоголосый) | AlexFilm
Субтитры: Русские (Forced |надписи|, английские (SDH)

Режиссер: Роберт Данкан МакНил, Джей Чандрашекхар, Шеннон Коли

rating

В ролях: Алан Тьюдик, Сара Томко, Кори Рейнольдс, Элис Веттерлунд, Леви Филер, Джуда Прен, Элизабет Бауэн, Бен Коттон, Мередит Гарретсон, Грэйслин Авад Ринке, Кэйлайла Рэйн, Дебора Финкел, Дженна Ламия, Гэри Фармер, Диана Пан, Манделл Мофан, Алекс Барима, Элвин Сандерс, Элви Йост, Линда Хэмилтон, Натан Филлион, Терри О`Куинн, Джорджио Цукалос

Описание: Доктор Гарри Вендершпигль — отшельник в небольшом городке в Колорадо. Ещё он — пришелец, который на самом деле упал на Землю и занял тело врача. Когда же доктора убивают, пришелец вынужден отложить миссию по возвращению домой и занять место убитого. Живя в новом теле, он постепенно начинает задаваться вопросами, стоят люди спасения или нет.

Качество: WEB-DL 1080p
Формат: MKV

Видео: MPEG-4 AVC, 1920x1080 (16:9), 23.976 fps, ~9300 Kbps
Аудио №1: AC3, 48,0 kHz, 6 ch, 384 kbps | AlexFilm
Аудио №2: AC3, 48,0 kHz, 6 ch, 384 kbps | Original
Аудио №3: EAC3, 48,0 kHz, 6 ch, 640 kbps | Original
скриншот  скриншот  скриншот  скриншот  

Complete name : D:Resident Alien_(s02)_AlexFilm_1080pResident.Alien.2022.S02E01.Old.Friends.1080p.AMZN.WEB-DL.DDP5.1.x264-NTb_EniaHD.mkv
Format : Matroska
Format version : Version 4
File size : 3.45 GiB
Duration : 46 min 7 s
Overall bit rate : 10.7 Mb/s
Encoded date : UTC 2022-01-28 17:05:25
Writing application : mkvmerge v58.0.0 ('Supper's Ready') 64-bit
Writing library : libebml v1.4.2 + libmatroska v1.6.4

Video
ID : 1
Format : AVC
Format/Info : Advanced Video Codec
Format profile : [email protected]
Format settings : CABAC / 4 Ref Frames
Format settings, CABAC : Yes
Format settings, Reference : 4 frames
Codec ID : V_MPEG4/ISO/AVC
Duration : 46 min 7 s
Bit rate mode : Constant
Bit rate : 9 298 kb/s
Nominal bit rate : 10 000 kb/s
Width : 1 920 pixels
Height : 1 080 pixels
Display aspect ratio : 16:9
Frame rate mode : Constant
Frame rate : 23.976 (24000/1001) FPS
Color space : YUV
Chroma subsampling : 4:2:0
Bit depth : 8 bits
Scan type : Progressive
Bits/(Pixel*Frame) : 0.187
Stream size : 3.00 GiB (87%)
Title : Release by EniaHD
Default : Yes
Forced : No
Color range : Limited
Color primaries : BT.709
Transfer characteristics : BT.709
Matrix coefficients : BT.709

Audio #1
ID : 2
Format : AC-3
Format/Info : Audio Coding 3
Commercial name : Dolby Digital
Codec ID : A_AC3
Duration : 46 min 7 s
Bit rate mode : Constant
Bit rate : 384 kb/s
Channel(s) : 6 channels
Channel layout : L R C LFE Ls Rs
Sampling rate : 48.0 kHz
Frame rate : 31.250 FPS (1536 SPF)
Compression mode : Lossy
Stream size : 127 MiB (4%)
Title : AlexFilm
Language : Russian
Service kind : Complete Main
Default : Yes
Forced : No

Audio #2
ID : 3
Format : AC-3
Format/Info : Audio Coding 3
Commercial name : Dolby Digital
Codec ID : A_AC3
Duration : 46 min 7 s
Bit rate mode : Constant
Bit rate : 384 kb/s
Channel(s) : 6 channels
Channel layout : L R C LFE Ls Rs
Sampling rate : 48.0 kHz
Frame rate : 31.250 FPS (1536 SPF)
Compression mode : Lossy
Stream size : 127 MiB (4%)
Language : English
Service kind : Complete Main
Default : No
Forced : No

Audio #3
ID : 4
Format : E-AC-3
Format/Info : Enhanced AC-3
Commercial name : Dolby Digital Plus
Codec ID : A_EAC3
Duration : 46 min 7 s
Bit rate mode : Constant
Bit rate : 640 kb/s
Channel(s) : 6 channels
Channel layout : L R C LFE Ls Rs
Sampling rate : 48.0 kHz
Frame rate : 31.250 FPS (1536 SPF)
Compression mode : Lossy
Stream size : 211 MiB (6%)
Language : English
Service kind : Complete Main
Default : No
Forced : No

Text #1
ID : 5
Format : UTF-8
Codec ID : S_TEXT/UTF8
Codec ID/Info : UTF-8 Plain Text
Duration : 26 min 17 s
Bit rate : 0 b/s
Count of elements : 3
Stream size : 188 Bytes (0%)
Title : Forced
Language : Russian
Default : Yes
Forced : No

Text #2
ID : 6
Format : UTF-8
Codec ID : S_TEXT/UTF8
Codec ID/Info : UTF-8 Plain Text
Duration : 46 min 1 s
Bit rate : 88 b/s
Count of elements : 1010
Stream size : 29.8 KiB (0%)
Title : SDH
Language : English
Default : No
Forced : No

Внимание! Раздача ведётся путём добавления новых серий; при каждом добавлении создаётся новый торрент.
Чтобы начать докачку новой серии, пользователям необходимо сделать следующее:
1. Остановить скачивание;
2. Удалить старый торрент у себя из клиента (старые серии удалять не надо);
3. Скачать новый торрент и запустить его у себя в клиенте вместо старого, при этом указать клиенту путь в старую папку куда и должно происходить скачивание новых серий. Ваш клиент при этом должен произвести хеширование (проверку) старой папки и будет докачивать только те серии, которых у вас ещё нет. Старые серии при этом не удаляются, а продолжают раздаваться! Eсли вы уже удалили старые серии, то предотвратить повторную закачку старых серий можно, отжав галочку в соответствующих местах при запуске нового торрента.




Скачать Засланец из космоса через торрент https://i5-imageban-ru.translate.goog/out/2022/03/11/83601867b854e10fdb35b40ab3571455.png Скачать, смотреть онлайн Засланец из космоса бесплантно в хорошем качестве Описание: Доктор Гарри Вендершпигль — отшельник в небольшом городке в Колорадо. Ещё он — пришелец, который на самом деле упал на Землю и ... 9.8 10 11
Info! Золотая раздача, скачанное не засчитывается.
Торрент: Зарегистрирован [2022-10-01 12:12] · скачан: 21 раз
Статус: √ проверено
Размер: 49.72 GB
Как cкачать? Как скачать Засланец из космоса через торрент | UTorrent

% Раздел Тема Автор DL S | L
Зарубежные сериалы [ 33.98 GB ] Засланец из космоса / Местный пришелец / Resident Alien / Сезон: 2 / Серии: 1-16 из 16 | MVO | 1080p bober100 Скачать
1 | 0
Зарубежные сериалы [ 8.47 GB ] Засланец из космоса / Местный пришелец / Resident Alien / Сезон: 2 / Серии: 1-16 из 16 | HDRezka Studio | DLRip bober100 Скачать
4 | 2
Зарубежные сериалы [ 30.61 GB ] Засланец из космоса / Местный пришелец / Resident Alien / Сезон: 2 / Серии: 1-16 из 16 | MVO+ DVO | 720p bober100 Скачать
2 | 0
Зарубежные сериалы [ 8.47 GB ] Засланец из космоса / Местный пришелец / Resident Alien / Сезон: 2 / Серии: 1-16 из 16 | MVO | WEBRip bober100 Скачать
2 | 0



Последний раз редактировалось: bober100 (2022-10-01 12:12), всего редактировалось 6 раз(а)

28-11-2019 20:33  


Отключить вcю реклaмy на сайте, в т.ч. и в плеере онлайн просмотра!

19-08-2022 14:41 Засланец из космоса Скачать торрент  

вроде показывали 2 сезон уже?



19-08-2022 15:55 Засланец из космоса Скачать торрент  

org писал(а):

вроде показывали 2 сезон уже?

Второй сезон состоит из 2 частей по 8 серий. Вторая часть начала выходить в августе.



    Дорогой пользователь! Огромная просьба, поблагодарите релизера, оцените раздачу и оставьте свои комментарий, если Вы скачали Засланец из космоса через торрент бесплатно!!
    Комментировать посты могут только пользователи прошедшие не сложную регистрацию
    Показать сообщения:    


    Засланец из космоса через торрент
    Скачать бесплатно Засланец из космоса
    Засланец из космоса скачать торрент
    Засланец из космоса смотреть онлайн
    Cкачать фильм Засланец из космоса бесплатно
    Засланец из космоса скачать торрент в хорошем качестве
    Засланец из космоса смотреть онлайн бесплатно в хорошем качестве
    Вы не можете начинать темы
    Вы не можете отвечать на сообщения
    Вы не можете редактировать свои сообщения
    Вы не можете удалять свои сообщения
    Вы не можете голосовать в опросах
    Вы не можете прикреплять файлы к сообщениям
    Вы можете скачивать файлы
    Засланец из космоса / Местный пришелец / Resident Alien / Сезон: 2 / Серии: 1-16 из 16 [2022, Фантастика, драма, комедия, детектив, WEB-DL 1080p] MVO [AlexFilm] смотреть онлайн, скачать торрент picoco.icu