Достать ножи: Стеклянная луковица

MVO

Добыча

Дубляж

Уэнсдэй

1 сезон

Тор

Дубляж

13 клиническая

1 сезон

Жестокая ночь

MVO

Одни из нас

1 сезон

Deluxe

pack

Рекомендуем

30

Пиратка

ВАЖНО

ВАЖНО

Ghostwire

Пиратка

jed

RePack

nioh2

RePack

RDR2

RePack

NEED FOR SPEED™ PAYBACK

RePack

скачать торрент

Кинопоиск HD

Острые козырьки 6 сезон

6 сезон

FAR CRY 6

RePack

скачать торрент

Лицензия

скачать торрент

MVO

1

1 сезон

скачать торрент

1 сезон

скачать торрент

Лицензия

  

Легенда о Vox Machina / Легенда Вокс Машины / The Legend of Vox Machina / Сезон: 1 / Серии: 1-12 из 12 (Ан Сон-джин) [2022, Мультфильм, фэнтези, боевик, комедия, приключения, WEB-DL 1080p] 2xMVO [LostFilm, HDRezka]

Легенда о Vox Machina через торрент pb.wtf

Раздают: 1 [ 0 KB/s ]
Размер: 23.66 GB | Добавлен: 7 мес. назад | Торрент скачан:109 раз
Смотреть онлайн | Скачать | Поддержите нас   

29-01-2022 16:58 Легенда о Vox Machina Скачать торрент  

Легенда о Vox Machina | Легенда Вокс Машины
The Legend of Vox Machina

Год выпуска: 2022
Страна: США
Студия: Amazon Studios
Жанр: Мультфильм, фэнтези, боевик, комедия, приключения
Продолжительность: ~ 00:27:00 серия
Перевод:
Профессиональный (многоголосый) | LostFilm
Профессиональный (многоголосый) | HDRezka
Субтитры: Русские (Forced, Full |NF|), английские (Full, SDH)

Режиссер: Ан Сон-джин

rating

В ролях: Лора Бэйли, Толизин Джаффе, Эшли Джонсон, Лайам О’Брайэн, Мариша Рэй, Сэм Ригел, Трэвис Уиллингэм, Мэттью Мерсер, Стефани Беатриз, Хари Пэйтон

Описание: Они хулиганы, они разношерстные, они неудачники, ставшие наемниками. Они больше заинтересованы в легких деньгах и дешевом эле, чем в реальной защите королевства. Но когда королевству угрожает зло, эта неистовая команда понимает, что только они способны восстановить справедливость...

Качество: WEB-DL 1080p
Формат: MKV

Видео: 1920x1080 at 23.976 fps, MPEG4-AVC, ~9200 kbps avg
Аудио#1: Russian: 48 kHz, AC3, 2/0 (L,R) ch, ~384 kbps avg |Многоголосый закадровый, LostFilm|
Аудио#2: Russian: 48 kHz, AC3, 3/2 (L,C,R,l,r) + LFE ch, ~448 kbps avg |Многоголосый закадровый, HDRezka|
Аудио#3: Russian: 48 kHz, AC3, 3/2 (L,C,R,l,r) + LFE ch, ~448 kbps avg |Многоголосый закадровый, HDRezka| 18+
Аудио#4: English: 48 kHz, E-AC3, 3/2 (L,C,R,l,r) + LFE ch, ~640 kbps avg
скриншот  скриншот  скриншот  скриншот  

Общее
Уникальный идентификатор : 91147696064787621851054463584149193634 (0x449268606C743711EEAB1295C8F443A2)
Полное имя : The.Legend.of.Vox.Machina.S01E01.WEB-DL.1080p.RGzsRutracker.mkv
Формат : Matroska
Версия формата : Version 4
Размер файла : 2,11 Гбайт
Продолжительность : 27 м. 7 с.
Общий поток : 11,1 Мбит/сек
Дата кодирования : UTC 2022-02-12 19:01:52
Программа кодирования : mkvmerge v65.0.0 ('Too Much') 64-bit
Библиотека кодирования : libebml v1.4.2 + libmatroska v1.6.4

Видео
Идентификатор : 1
Формат : AVC
Формат/Информация : Advanced Video Codec
Профиль формата : [email protected]
Настройки формата : CABAC / 4 Ref Frames
Параметр CABAC формата : Да
Параметр RefFrames формата : 4 кадра
Идентификатор кодека : V_MPEG4/ISO/AVC
Продолжительность : 27 м. 7 с.
Вид битрейта : Постоянный
Битрейт : 9 254 Кбит/сек
Номинальный битрейт : 10 000 Кбит/сек
Ширина : 1 920 пикселей
Высота : 1 080 пикселей
Соотношение сторон : 16:9
Режим частоты кадров : Постоянный
Частота кадров : 23,976 (24000/1001) кадра/сек
Цветовое пространство : YUV
Субдискретизация насыщенности : 4:2:0
Битовая глубина : 8 бит
Тип развёртки : Прогрессивная
Бит/(Пиксели*Кадры) : 0.186
Размер потока : 1,75 Гбайт (83%)
Язык : English
Default : Да
Forced : Нет
Цветовой диапазон : Limited
Основные цвета : BT.709
Характеристики трансфера : BT.709
Коэффициенты матрицы : BT.709

Аудио #1
Идентификатор : 2
Формат : AC-3
Формат/Информация : Audio Coding 3
Коммерческое название : Dolby Digital
Идентификатор кодека : A_AC3
Продолжительность : 27 м. 7 с.
Вид битрейта : Постоянный
Битрейт : 384 Кбит/сек
Каналы : 2 канала
Channel layout : L R
Частота : 48,0 КГц
Частота кадров : 31,250 кадров/сек (1536 SPF)
Метод сжатия : С потерями
Размер потока : 74,5 Мбайт (3%)
Заголовок : LF
Язык : Russian
Service kind : Complete Main
Default : Да
Forced : Нет

Аудио #2
Идентификатор : 3
Формат : AC-3
Формат/Информация : Audio Coding 3
Коммерческое название : Dolby Digital
Идентификатор кодека : A_AC3
Продолжительность : 26 м. 9 с.
Вид битрейта : Постоянный
Битрейт : 448 Кбит/сек
Каналы : 6 каналов
Channel layout : L R C LFE Ls Rs
Частота : 48,0 КГц
Частота кадров : 31,250 кадров/сек (1536 SPF)
Метод сжатия : С потерями
Размер потока : 83,8 Мбайт (4%)
Заголовок : HDr
Язык : Russian
Service kind : Complete Main
Default : Нет
Forced : Нет

Аудио #3
Идентификатор : 4
Формат : AC-3
Формат/Информация : Audio Coding 3
Коммерческое название : Dolby Digital
Идентификатор кодека : A_AC3
Продолжительность : 26 м. 9 с.
Вид битрейта : Постоянный
Битрейт : 448 Кбит/сек
Каналы : 6 каналов
Channel layout : L R C LFE Ls Rs
Частота : 48,0 КГц
Частота кадров : 31,250 кадров/сек (1536 SPF)
Метод сжатия : С потерями
Размер потока : 83,8 Мбайт (4%)
Заголовок : HDr 18+
Язык : Russian
Service kind : Complete Main
Default : Нет
Forced : Нет

Аудио #4
Идентификатор : 5
Формат : E-AC-3
Формат/Информация : Enhanced AC-3
Коммерческое название : Dolby Digital Plus
Идентификатор кодека : A_EAC3
Продолжительность : 27 м. 7 с.
Вид битрейта : Постоянный
Битрейт : 640 Кбит/сек
Каналы : 6 каналов
Channel layout : L R C LFE Ls Rs
Частота : 48,0 КГц
Частота кадров : 31,250 кадров/сек (1536 SPF)
Метод сжатия : С потерями
Размер потока : 124 Мбайт (6%)
Заголовок : Eng
Язык : English
Service kind : Complete Main
Default : Нет
Forced : Нет

Текст #1
Идентификатор : 6
Формат : UTF-8
Идентификатор кодека : S_TEXT/UTF8
Идентификатор кодека/Информация : UTF-8 Plain Text
Продолжительность : 20 м. 15 с.
Битрейт : 11 бит/сек
Count of elements : 23
Размер потока : 1,77 Кбайт (0%)
Заголовок : Forc
Язык : Russian
Default : Да
Forced : Нет

Текст #2
Идентификатор : 7
Формат : UTF-8
Идентификатор кодека : S_TEXT/UTF8
Идентификатор кодека/Информация : UTF-8 Plain Text
Продолжительность : 25 м. 59 с.
Битрейт : 106 бит/сек
Count of elements : 347
Размер потока : 20,3 Кбайт (0%)
Заголовок : Rus
Язык : Russian
Default : Нет
Forced : Нет

Текст #3
Идентификатор : 8
Формат : UTF-8
Идентификатор кодека : S_TEXT/UTF8
Идентификатор кодека/Информация : UTF-8 Plain Text
Продолжительность : 26 м. 3 с.
Битрейт : 69 бит/сек
Count of elements : 444
Размер потока : 13,2 Кбайт (0%)
Заголовок : Eng
Язык : English
Default : Нет
Forced : Нет

Текст #4
Идентификатор : 9
Формат : UTF-8
Идентификатор кодека : S_TEXT/UTF8
Идентификатор кодека/Информация : UTF-8 Plain Text
Продолжительность : 26 м. 3 с.
Битрейт : 80 бит/сек
Count of elements : 531
Размер потока : 15,3 Кбайт (0%)
Заголовок : SDH
Язык : English
Default : Нет
Forced : Нет

Меню
00:00:00.000 : en:Amazon Original
00:00:04.000 : en:Scene 2
00:01:03.000 : en:Scene 3
00:02:04.000 : en:Scene 4
00:03:50.000 : en:Title Sequence
00:03:55.000 : en:Scene 6
00:06:24.000 : en:Scene 7
00:08:19.000 : en:Scene 8
00:11:58.000 : en:Scene 9
00:15:33.000 : en:Scene 10
00:18:53.000 : en:Scene 11
00:22:29.000 : en:Scene 12
00:25:20.000 : en:End Credits

Внимание! Раздача ведётся путём добавления новых серий; при каждом добавлении создаётся новый торрент.
Чтобы начать докачку новой серии, пользователям необходимо сделать следующее:
1. Остановить скачивание;
2. Удалить старый торрент у себя из клиента (старые серии удалять не надо);
3. Скачать новый торрент и запустить его у себя в клиенте вместо старого, при этом указать клиенту путь в старую папку куда и должно происходить скачивание новых серий. Ваш клиент при этом должен произвести хеширование (проверку) старой папки и будет докачивать только те серии, которых у вас ещё нет. Старые серии при этом не удаляются, а продолжают раздаваться! Eсли вы уже удалили старые серии, то предотвратить повторную закачку старых серий можно, отжав галочку в соответствующих местах при запуске нового торрента.




Скачать Легенда о Vox Machina через торрент https://i116.fastpic.org/big/2022/0129/0a/cd7440879d7d8643e2993a7729cb570a.png Скачать, смотреть онлайн Легенда о Vox Machina бесплантно в хорошем качестве Описание: Они хулиганы, они разношерстные, они неудачники, ставшие наемниками. Они больше заинтересованы в легких деньгах и дешевом эле, ... 10 10 8
Торрент: Зарегистрирован [2022-06-29 20:05] · скачан: 109 раз
Статус: √ проверено
Размер: 23.66 GB
Как cкачать? Как скачать Легенда о Vox Machina через торрент | UTorrent

% Раздел Тема Автор DL S | L
* Для пробных / тестовых / неоформленых раздач [ 6.92 GB ] Легенда о Vox Machina / The Legend of Vox Machina / Сезон: 1-2 из 2/ Серии: 1-19 из 24 | LostFilm | DLRip qwerty1234 Скачать
2 | 1



Последний раз редактировалось: bober100 (2022-06-29 20:35), всего редактировалось 3 раз(а)

28-11-2019 20:33  


Отключить вcю реклaмy на сайте, в т.ч. и в плеере онлайн просмотра!

29-06-2022 15:18 Легенда о Vox Machina Скачать торрент  

Как ребята сериал?



29-06-2022 20:24 Легенда о Vox Machina Скачать торрент  

очень крутой мульт,только hdreska 18+



29-06-2022 22:00 Легенда о Vox Machina Скачать торрент  

если понравился неуязвимый, то смотреть рекомендуется



    Дорогой пользователь! Огромная просьба, поблагодарите релизера, оцените раздачу и оставьте свои комментарий, если Вы скачали Легенда о Vox Machina через торрент бесплатно!!
    Комментировать посты могут только пользователи прошедшие не сложную регистрацию
    Показать сообщения:    


    Легенда о Vox Machina через торрент
    Скачать бесплатно Легенда о Vox Machina
    Легенда о Vox Machina скачать торрент
    Легенда о Vox Machina смотреть онлайн
    Cкачать фильм Легенда о Vox Machina бесплатно
    Легенда о Vox Machina скачать торрент в хорошем качестве
    Легенда о Vox Machina смотреть онлайн бесплатно в хорошем качестве
    Вы не можете начинать темы
    Вы не можете отвечать на сообщения
    Вы не можете редактировать свои сообщения
    Вы не можете удалять свои сообщения
    Вы не можете голосовать в опросах
    Вы не можете прикреплять файлы к сообщениям
    Вы можете скачивать файлы
    Легенда о Vox Machina / Легенда Вокс Машины / The Legend of Vox Machina / Сезон: 1 / Серии: 1-12 из 12 [2022, Мультфильм, фэнтези, боевик, комедия, приключения, WEB-DL 1080p] 2xMVO [LostFilm, HDRezka] смотреть онлайн, скачать торрент picoco.icu