Достать ножи: Стеклянная луковица

MVO

Добыча

Дубляж

Уэнсдэй

1 сезон

Тор

Дубляж

13 клиническая

1 сезон

Жестокая ночь

MVO

Одни из нас

1 сезон

Deluxe

pack

Рекомендуем

30

Пиратка

ВАЖНО

ВАЖНО

Ghostwire

Пиратка

jed

RePack

nioh2

RePack

RDR2

RePack

NEED FOR SPEED™ PAYBACK

RePack

скачать торрент

Кинопоиск HD

Острые козырьки 6 сезон

6 сезон

FAR CRY 6

RePack

скачать торрент

Лицензия

скачать торрент

MVO

1

1 сезон

скачать торрент

1 сезон

скачать торрент

Лицензия

  

Арн: Дилогия / Arn: Dilogy (Петер Флинт) [2007 - 2008, боевик, драма, мелодрама, приключения, военный, BDRip - HEVC 1080p 10 bit 60 FPS, MVO]

Арн: Дилогия через торрент pb.wtf

Размер: 8.27 GB | Добавлен: 1 год назад | Торрент скачан:23 раза
| Скачать | Поддержите нас   

02-02-2022 13:16 Арн: Дилогия Скачать торрент  



«Арн: Рыцарь-тамплиер» (швед. Arn – Tempelriddaren) — художественный фильм 2007 года, снятый на основе произведений шведского писателя Яна Гийу о тамплиере Арне Магнуссоне «Путь в Иерусалим» (Vägen till Jerusalem, 1998) и «Тамплиер» (Tempelriddaren, 1999). Релиз фильма состоялся 25 декабря 2007, а его сиквел «Арн: Королевство в конце пути» вышел 22 августа 2008 года. Кинокартина совместного производства Швеции, Дании, Норвегии, Финляндии и Германии, но большая часть снята именно в Швеции и на шведском языке, став самым дорогим шведским кинопроектом в истории.
Arn Tempelriddaren
«In a Time of War and Betrayal, a Hero Will Rise»

Год выпуска: 2007
Страна: Швеция, Великобритания, Дания, Норвегия, Финляндия, Германия, Марокко
Жанр: Боевик, драма, мелодрама, приключения, военный, история
Продолжительность: 02:19:13
Перевод: Многоголосый закадровый | студия Кравец
Субтитры: нет |
Режиссер: Петер Флинт
В ролях: Йоаким Наттерквист, София Хелин, Стеллан Скарсгард, Микаэл Нюквист, Морган Аллинг, Свен-Бертиль Таубе, Биби Андерссон, Густаф Скарсгард, Саймон Кэллоу, Венсан Перес, Юлия Дуфвениус, Сванте Мартин, Ёрген Лангхелле, Томас В. Габриэльссон, Лотта Ларссон
Описание:
Арн, сын высокопоставленного шведского дворянина, заканчивает свое монастырское обучение и, в наказание за свою запретную любовь, отправляется в Священные Земли в качестве рыцаря-тамплиера. Там ему суждено принять участие в битве при Хатине и других событиях, связанных с тяжёлыми временами Иерусалимского королевства...
Мировая премьера: 17 декабря 2007

Качество: BDRip 1080p Rip by DD2D3
Формат: MKV
Видео: V_MPEGH/ISO/HEVC; 1920x816 (2.35:1); 3698 Kbps; 60 fps; 0,039 bpp
Аудио: русский; AC3; 640 Kbps; CBR; 6 ch ||
Навигация по главам: есть



Общее
Уникальный идентификатор : 237288361779808699527409407768861990343 (0xB284137DF3D699ADBA8D4D0D2D09DDC7)
Полное имя : D:\Arn Dilogy (2007 - 2008) BDRip - HEVC 1080p 10 bit 60 FPS\Arn Tempelriddaren (2007) BDRip - HEVC 1080p 10 bit 60 FPS.mkv
Формат : Matroska
Версия формата : Version 2
Размер файла : 4,30 Гбайт
Продолжительность : 2 ч. 19 м.
Общий поток : 4 426 Кбит/сек
Название фильма : Rip by from DD2D3
Дата кодирования : UTC 2022-01-25 12:11:15
Программа кодирования : mkvmerge v7.8.0 ('River Man') 32bit built on Apr 3 2015 12:11:22
Библиотека кодирования : libebml v1.3.1 + libmatroska v1.4.2
Attachments : poster

Видео
Идентификатор : 1
Формат : HEVC
Формат/Информация : High Efficiency Video Coding
Профиль формата : Main [email protected]@Main
Идентификатор кодека : V_MPEGH/ISO/HEVC
Продолжительность : 2 ч. 19 м.
Битрейт : 3 698 Кбит/сек
Ширина : 1 920 пикселей
Высота : 816 пикселей
Соотношение сторон : 2,35:1
Режим частоты кадров : Постоянный
Частота кадров : 60,000 кадров/сек
Цветовое пространство : YUV
Субдискретизация насыщенности : 4:2:0
Битовая глубина : 10 бит
Бит/(Пиксели*Кадры) : 0.039
Размер потока : 3,60 Гбайт (84%)
Библиотека кодирования : x265 3.5+10-82786fccc:[Windows][GCC 11.1.0][64 bit] 10bit
Настройки программы : cpuid=1111039 / frame-threads=2 / numa-pools=4 / wpp / no-pmode / no-pme / no-psnr / no-ssim / log-level=2 / input-csp=1 / input-res=1920x816 / interlace=0 / total-frames=498351 / level-idc=41 / high-tier=1 / uhd-bd=0 / ref=3 / no-allow-non-conformance / no-repeat-headers / annexb / no-aud / no-eob / no-eos / no-hrd / info / hash=0 / no-temporal-layers / open-gop / min-keyint=25 / keyint=250 / gop-lookahead=0 / bframes=4 / b-adapt=2 / b-pyramid / bframe-bias=0 / rc-lookahead=20 / lookahead-slices=5 / scenecut=40 / hist-scenecut=0 / radl=0 / no-splice / no-intra-refresh / ctu=64 / min-cu-size=8 / no-rect / no-amp / max-tu-size=32 / tu-inter-depth=1 / tu-intra-depth=1 / limit-tu=0 / rdoq-level=0 / dynamic-rd=0.00 / no-ssim-rd / signhide / no-tskip / nr-intra=0 / nr-inter=0 / no-constrained-intra / strong-intra-smoothing / max-merge=3 / limit-refs=1 / no-limit-modes / me=2 / subme=5 / merange=57 / temporal-mvp / no-frame-dup / no-hme / weightp / no-weightb / no-analyze-src-pics / deblock=0:0 / sao / no-sao-non-deblock / rd=3 / selective-sao=4 / early-skip / rskip / no-fast-intra / no-tskip-fast / no-cu-lossless / b-intra / no-splitrd-skip / rdpenalty=0 / psy-rd=2.00 / psy-rdoq=0.00 / no-rd-refine / no-lossless / cbqpoffs=0 / crqpoffs=0 / rc=abr / bitrate=3800 / qcomp=0.60 / qpstep=4 / stats-write=0 / stats-read=2 / cplxblur=20.0 / qblur=0.5 / ipratio=1.40 / pbratio=1.30 / aq-mode=2 / aq-strength=1.00 / cutree / zone-count=0 / no-strict-cbr / qg-size=32 / no-rc-grain / qpmax=69 / qpmin=0 / no-const-vbv / sar=1 / overscan=0 / videoformat=5 / range=0 / colorprim=2 / transfer=2 / colormatrix=2 / chromaloc=0 / display-window=0 / cll=0,0 / min-luma=0 / max-luma=1023 / log2-max-poc-lsb=8 / vui-timing-info / vui-hrd-info / slices=1 / no-opt-qp-pps / no-opt-ref-list-length-pps / no-multi-pass-opt-rps / scenecut-bias=0.05 / hist-threshold=0.03 / no-opt-cu-delta-qp / no-aq-motion / no-hdr10 / no-hdr10-opt / no-dhdr10-opt / no-idr-recovery-sei / analysis-reuse-level=0 / analysis-save-reuse-level=0 / analysis-load-reuse-level=0 / scale-factor=0 / refine-intra=0 / refine-inter=0 / refine-mv=1 / refine-ctu-distortion=0 / no-limit-sao / ctu-info=0 / no-lowpass-dct / refine-analysis-type=0 / copy-pic=1 / max-ausize-factor=1.0 / no-dynamic-refine / no-single-sei / no-hevc-aq / no-svt / no-field / qp-adaptation-range=1.00 / scenecut-aware-qp=0conformance-window-offsets / right=0 / bottom=0 / decoder-max-rate=0 / no-vbv-live-multi-pass
Default : Да
Forced : Нет

Аудио
Идентификатор : 2
Формат : AC-3
Формат/Информация : Audio Coding 3
Коммерческое название : Dolby Digital
Идентификатор кодека : A_AC3
Продолжительность : 2 ч. 19 м.
Вид битрейта : Постоянный
Битрейт : 640 Кбит/сек
Каналы : 6 каналов
Channel layout : L R C LFE Ls Rs
Частота : 48,0 КГц
Частота кадров : 31,250 кадров/сек (1536 SPF)
Метод сжатия : С потерями
Размер потока : 637 Мбайт (14%)
Заголовок : MVO
Язык : Russian
Service kind : Complete Main
Default : Да
Forced : Нет

Меню
00:00:00.000 : :Chapter 01
00:12:43.375 : :Chapter 02
00:26:16.125 : :Chapter 03
00:38:40.750 : :Chapter 04
00:52:11.208 : :Chapter 05
01:05:08.041 : :Chapter 06
01:17:10.875 : :Chapter 07
01:30:14.000 : :Chapter 08
01:44:33.916 : :Chapter 09
01:57:44.166 : :Chapter 10
02:10:55.000 : :Chapter 11
02:18:25.833 : :Chapter 12

скриншот  скриншот  скриншот  скриншот  


Arn Riket vid vägens slut
«Time of War and Betrayal, a Hero Will Rise»

Год выпуска: 2008
Страна: Германия, Дания, Швеция, Финляндия, Великобритания, Норвегия
Жанр: Боевик, драма, мелодрама, приключения, военный, история
Продолжительность: 02:07:37
Перевод: Многоголосый закадровый | студия Кравец
Субтитры: нет |
Режиссер: Петер Флинт
В ролях: Йоаким Наттерквист, Морган Аллинг, Биби Андерссон, Джой Андерссон, Томас Больме, Николас Болтон, Якоб Седергрен, Анника Халлин, София Хелин, Юэль Киннаман, Каллум Митчел, Горан Рагнерстам
Описание:
Второй фильм о вымышленном шведском рыцаре тамплиеров Арне Магнассоне. История его жизни развивается в Святой земле во времена Саладина, битвы при Хатине и других событий, связанных с тяжёлыми временами Иерусалимского королевства. После всех трудностей, сомнений и испытаний, Арн оставляет Иерусалим совсем другим человеком, возвращается в Швецию измученную феодальными распрями, к своей семье погрязшей в этих дрязгах и к любви своей юности, Сесилии, с которой они были разлучены 20 лет...
Мировая премьера: 22 августа 2008

Качество: BDRip 1080p Rip by DD2D3
Формат: MKV
Видео: V_MPEGH/ISO/HEVC;1920x816 (2.35:1); 3720 Kbps; 60 fps; 0,040 bpp
Аудио: русский; AC3; 640 Kbps; CBR; 6 ch ||
Навигация по главам: есть



Общее
Уникальный идентификатор : 246125468196808383574308383199444054058 (0xB92A0A7A3C20B0C98A0C74E0FD27B02A)
Полное имя : D:\Arn Dilogy (2007 - 2008) BDRip - HEVC 1080p 10 bit 60 FPS\Arn Riket vid vägens slut (2008) BDRip - HEVC 1080p 10 bit 60 FPS.mkv
Формат : Matroska
Версия формата : Version 2
Размер файла : 3,97 Гбайт
Продолжительность : 2 ч. 7 м.
Общий поток : 4 449 Кбит/сек
Название фильма : Rip by from DD2D3
Дата кодирования : UTC 2022-02-01 19:48:49
Программа кодирования : mkvmerge v7.8.0 ('River Man') 32bit built on Apr 3 2015 12:11:22
Библиотека кодирования : libebml v1.3.1 + libmatroska v1.4.2
Attachments : poster

Видео
Идентификатор : 1
Формат : HEVC
Формат/Информация : High Efficiency Video Coding
Профиль формата : Main [email protected]@Main
Идентификатор кодека : V_MPEGH/ISO/HEVC
Продолжительность : 2 ч. 7 м.
Битрейт : 3 721 Кбит/сек
Ширина : 1 920 пикселей
Высота : 816 пикселей
Соотношение сторон : 2,35:1
Режим частоты кадров : Постоянный
Частота кадров : 60,000 кадров/сек
Цветовое пространство : YUV
Субдискретизация насыщенности : 4:2:0
Битовая глубина : 10 бит
Бит/(Пиксели*Кадры) : 0.040
Размер потока : 3,32 Гбайт (84%)
Библиотека кодирования : x265 3.5+10-82786fccc:[Windows][GCC 11.1.0][64 bit] 10bit
Настройки программы : cpuid=1111039 / frame-threads=2 / numa-pools=4 / wpp / no-pmode / no-pme / no-psnr / no-ssim / log-level=2 / input-csp=1 / input-res=1920x816 / interlace=0 / total-frames=459413 / level-idc=41 / high-tier=1 / uhd-bd=0 / ref=3 / no-allow-non-conformance / no-repeat-headers / annexb / no-aud / no-eob / no-eos / no-hrd / info / hash=0 / no-temporal-layers / open-gop / min-keyint=25 / keyint=250 / gop-lookahead=0 / bframes=4 / b-adapt=2 / b-pyramid / bframe-bias=0 / rc-lookahead=20 / lookahead-slices=5 / scenecut=40 / hist-scenecut=0 / radl=0 / no-splice / no-intra-refresh / ctu=64 / min-cu-size=8 / no-rect / no-amp / max-tu-size=32 / tu-inter-depth=1 / tu-intra-depth=1 / limit-tu=0 / rdoq-level=0 / dynamic-rd=0.00 / no-ssim-rd / signhide / no-tskip / nr-intra=0 / nr-inter=0 / no-constrained-intra / strong-intra-smoothing / max-merge=3 / limit-refs=1 / no-limit-modes / me=2 / subme=5 / merange=57 / temporal-mvp / no-frame-dup / no-hme / weightp / no-weightb / no-analyze-src-pics / deblock=0:0 / no-sao / no-sao-non-deblock / rd=3 / selective-sao=0 / early-skip / no-rskip / no-fast-intra / no-tskip-fast / no-cu-lossless / b-intra / no-splitrd-skip / rdpenalty=0 / psy-rd=4.00 / psy-rdoq=0.00 / no-rd-refine / no-lossless / cbqpoffs=0 / crqpoffs=0 / rc=abr / bitrate=3800 / qcomp=0.60 / qpstep=1 / stats-write=0 / stats-read=2 / cplxblur=20.0 / qblur=0.5 / ipratio=1.10 / pbratio=1.00 / aq-mode=0 / aq-strength=0.00 / no-cutree / zone-count=0 / no-strict-cbr / qg-size=64 / rc-grain / qpmax=69 / qpmin=0 / const-vbv / sar=1 / overscan=0 / videoformat=5 / range=0 / colorprim=2 / transfer=2 / colormatrix=2 / chromaloc=0 / display-window=0 / cll=0,0 / min-luma=0 / max-luma=1023 / log2-max-poc-lsb=8 / vui-timing-info / vui-hrd-info / slices=1 / no-opt-qp-pps / no-opt-ref-list-length-pps / no-multi-pass-opt-rps / scenecut-bias=0.05 / hist-threshold=0.03 / no-opt-cu-delta-qp / no-aq-motion / no-hdr10 / no-hdr10-opt / no-dhdr10-opt / no-idr-recovery-sei / analysis-reuse-level=0 / analysis-save-reuse-level=0 / analysis-load-reuse-level=0 / scale-factor=0 / refine-intra=0 / refine-inter=0 / refine-mv=1 / refine-ctu-distortion=0 / no-limit-sao / ctu-info=0 / no-lowpass-dct / refine-analysis-type=0 / copy-pic=1 / max-ausize-factor=1.0 / no-dynamic-refine / no-single-sei / no-hevc-aq / no-svt / no-field / qp-adaptation-range=1.00 / scenecut-aware-qp=0conformance-window-offsets / right=0 / bottom=0 / decoder-max-rate=0 / no-vbv-live-multi-pass
Default : Да
Forced : Нет

Аудио
Идентификатор : 2
Формат : AC-3
Формат/Информация : Audio Coding 3
Коммерческое название : Dolby Digital
Идентификатор кодека : A_AC3
Продолжительность : 2 ч. 7 м.
Вид битрейта : Постоянный
Битрейт : 640 Кбит/сек
Каналы : 6 каналов
Channel layout : L R C LFE Ls Rs
Частота : 48,0 КГц
Частота кадров : 31,250 кадров/сек (1536 SPF)
Метод сжатия : С потерями
Размер потока : 584 Мбайт (14%)
Заголовок : MVO (студия Кравец)
Язык : Russian
Service kind : Complete Main
Default : Да
Forced : Нет

Меню
00:00:00.000 : :Chapter 01
00:12:16.083 : :Chapter 02
00:23:30.125 : :Chapter 03
00:36:21.958 : :Chapter 04
00:48:06.875 : :Chapter 05
01:00:52.250 : :Chapter 06
01:11:32.041 : :Chapter 07
01:25:38.125 : :Chapter 08
01:37:51.333 : :Chapter 09
01:47:35.833 : :Chapter 10
02:01:08.000 : :Chapter 11
02:07:36.833 : :Chapter 12

скриншот  скриншот  скриншот  скриншот  

© Оформление by DD2D3



Скачать Арн: Дилогия через торрент http://images.vfl.ru/ii/1643804406/93241067/37840040.jpg Скачать, смотреть онлайн Арн: Дилогия бесплантно в хорошем качестве Описание: Арн, сын высокопоставленного шведского дворянина, заканчивает свое монастырское обучение и, в наказание за свою запретную любовь, ... 9.8 10 6
Торрент: Зарегистрирован [2022-02-02 13:16] · скачан: 23 раз
Статус: √ проверено
Размер: 8.27 GB
Как cкачать? Как скачать Арн: Дилогия через торрент | UTorrent

28-11-2019 20:33  


Отключить вcю реклaмy на сайте, в т.ч. и в плеере онлайн просмотра!

    Дорогой пользователь! Огромная просьба, поблагодарите релизера, оцените раздачу и оставьте свои комментарий, если Вы скачали Арн: Дилогия через торрент бесплатно!!
    Комментировать посты могут только пользователи прошедшие не сложную регистрацию
    Показать сообщения:    


    Арн: Дилогия через торрент
    Скачать бесплатно Арн: Дилогия
    Арн: Дилогия скачать торрент
    Арн: Дилогия смотреть онлайн
    Cкачать фильм Арн: Дилогия бесплатно
    Арн: Дилогия скачать торрент в хорошем качестве
    Арн: Дилогия смотреть онлайн бесплатно в хорошем качестве
    Вы не можете начинать темы
    Вы не можете отвечать на сообщения
    Вы не можете редактировать свои сообщения
    Вы не можете удалять свои сообщения
    Вы не можете голосовать в опросах
    Вы не можете прикреплять файлы к сообщениям
    Вы можете скачивать файлы
    Арн: Дилогия / Arn: Dilogy [2007 - 2008, боевик, драма, мелодрама, приключения, военный, BDRip - HEVC 1080p 10 bit 60 FPS, MVO] смотреть онлайн, скачать торрент picoco.icu