Всегда рабочее зеркало без VPN и Proxy просто перед .vidak.icu напиши любое слово или цифру, Пример http://p0sf.vidak.icu

MVO

MVO

1 сезон

1

1 сезон

iTunes

1 сезон

13

1 сезон

Deluxe

pack

Рекомендуем

Repack

30

ВАЖНО

RePack

MK11

RePack

jed

RePack

fifa19

RePack

RDR2

RePack

NEED FOR SPEED™ PAYBACK

Кинопоиск HD

6 сезон

 Острые козырьки 6 сезон

Все сериалы

все сериалы на PB.wtf

RePack

FAR CRY 5
  
Magnet ссылка

Хороший, плохой, коп / Copshop (Джо Карнахан) [2021, Боевик, триллер, криминал, UHD BDRemux 2160p] DUB [iTunes] +MVO (rus, ukr) [HDRezka Studio] pb.wtf

Хороший, плохой, коп через торрент pb.wtf

Раздают: 2 [ 0 KB/s ]
Размер: 49.77 GB | Добавлен: 6 мес. назад | Торрент скачан:56 раз
Смотреть онлайн Хороший, плохой, коп | Скачать    Ребята, помогите собрать деньги на оплату серверов!!!

03-02-2022 11:24 Хороший, плохой, коп Скачать торрент  

Хороший, плохой, коп
Copshop

Год выпуска: 2021
Страна: США
Выпущено: G-BASE, Raven Capital Management, Sculptor Media, WarParty Films, Zero Gravity Management
Жанр: Боевик, триллер, криминал
Продолжительность: 01:47:23
Перевод(ы):
#1: Дублированный | iTunes
#2: Профессиональный многоголосый | HDRezka Studio
Субтитры: Русские (Forced, full), украинские (Forced), английские

Режиссер: Джо Карнахан

rating

В ролях: Джерард Батлер, Фрэнк Грилло, Алексис Лодер, Тоби Хасс, Чад Л. Коулмэн, Райан О’Нан, Хосе Пабло Кантильо, Каиви Лайман, Роберт Уокер Браншод, Трэйси Боннер

Описание: Небольшой городок в Неваде. Во время разгона свадебной драки молодая полицейская Валери Янг получает по лицу от заезжего хлыща. Только его определяют за решётку в местный полицейский участок, как в дежурных копов на пустынной дороге чуть не врезается на машине какой-то пьянчуга. Его сажают в другую камеру, и он оказался тут неспроста. Скоро прежде тихий полицейский участок станет местом жестокого противостояния, а Валери придётся принимать непростые решения.

Качество: UHD BDRemux 2160p
Формат: MKV

Видео: 3840x2160 at 23.976 fps, MPEG-H HEVC HDR, ~ 61800 kbps avg
Аудио #01: 48 kHz, AC3, 5.1, 384 Kbps | Дублированный | iTunes | RUS |
Аудио #02: 48 kHz, AC3, 5.1, 448 Kbps | Профессиональный многоголосый | HDRezka Studio | RUS |
Аудио #03: 48 kHz, AC3, 5.1, 384 Kbps | Профессиональный многоголосый | HDRezka Studio | UKR |
Аудио #04: 48 kHz, DTS-HD MA, 5.1, 3328 Kbps | Оригинал | ENG |
скриншот  скриншот  скриншот  скриншот  скриншот  скриншот  

General
Unique ID : 38094197694027969538304100159216592687 (0x1CA8ACF46CDE30AEA11A7A7D6D06A72F)
Complete name : D:VideoCopshop.2021.D.MVO.BDREMUX.2160p.HDR.seleZen.mkv
Format : Matroska
Format version : Version 4
File size : 49.8 GiB
Duration : 1 h 47 min
Overall bit rate mode : Variable
Overall bit rate : 66.3 Mb/s
Movie name : Copshop 2021 from seleZen
Encoded date : UTC 2022-02-03 09:49:38
Writing application : mkvmerge v59.0.0 ('Shining Star') 64-bit
Writing library : libebml v1.4.2 + libmatroska v1.6.4

Video
ID : 1
Format : HEVC
Format/Info : High Efficiency Video Coding
Format profile : Main [email protected]@High
HDR format : SMPTE ST 2086, HDR10 compatible
Codec ID : V_MPEGH/ISO/HEVC
Duration : 1 h 47 min
Bit rate : 61.8 Mb/s
Width : 3 840 pixels
Height : 2 160 pixels
Display aspect ratio : 16:9
Frame rate mode : Constant
Frame rate : 23.976 (24000/1001) FPS
Standard : Component
Color space : YUV
Chroma subsampling : 4:2:0 (Type 2)
Bit depth : 10 bits
Bits/(Pixel*Frame) : 0.311
Stream size : 46.4 GiB (93%)
Language : English
Default : Yes
Forced : No
Color range : Limited
Color primaries : BT.2020
Transfer characteristics : PQ
Matrix coefficients : BT.2020 non-constant
Mastering display color pri : BT.2020
Mastering display luminance : min: 0.0050 cd/m2, max: 1000 cd/m2
Maximum Content Light Level : 996 cd/m2
Maximum Frame-Average Light : 269 cd/m2

Audio #1
ID : 2
Format : AC-3
Format/Info : Audio Coding 3
Commercial name : Dolby Digital
Codec ID : A_AC3
Duration : 1 h 47 min
Bit rate mode : Constant
Bit rate : 384 kb/s
Channel(s) : 6 channels
Channel layout : L R C LFE Ls Rs
Sampling rate : 48.0 kHz
Frame rate : 31.250 FPS (1536 SPF)
Compression mode : Lossy
Stream size : 295 MiB (0%)
Title : Dub [iTunes]
Language : Russian
Service kind : Complete Main
Default : Yes
Forced : Yes

Audio #2
ID : 3
Format : AC-3
Format/Info : Audio Coding 3
Commercial name : Dolby Digital
Codec ID : A_AC3
Duration : 1 h 47 min
Bit rate mode : Constant
Bit rate : 448 kb/s
Channel(s) : 6 channels
Channel layout : L R C LFE Ls Rs
Sampling rate : 48.0 kHz
Frame rate : 31.250 FPS (1536 SPF)
Compression mode : Lossy
Stream size : 344 MiB (1%)
Title : MVO [HDRezka Studio]
Language : Russian
Service kind : Complete Main
Default : No
Forced : No

Audio #3
ID : 4
Format : AC-3
Format/Info : Audio Coding 3
Commercial name : Dolby Digital
Codec ID : A_AC3
Duration : 1 h 47 min
Bit rate mode : Constant
Bit rate : 384 kb/s
Channel(s) : 6 channels
Channel layout : L R C LFE Ls Rs
Sampling rate : 48.0 kHz
Frame rate : 31.250 FPS (1536 SPF)
Compression mode : Lossy
Stream size : 295 MiB (0%)
Title : MVO [HDRezka Studio]
Language : Ukrainian
Service kind : Complete Main
Default : No
Forced : No

Audio #4
ID : 5
ID in the original source m : 4352 (0x1100)
Format : DTS XLL
Format/Info : Digital Theater Systems
Commercial name : DTS-HD Master Audio
Codec ID : A_DTS
Duration : 1 h 47 min
Bit rate mode : Variable
Bit rate : 3 328 kb/s
Channel(s) : 6 channels
Channel layout : C L R Ls Rs LFE
Sampling rate : 48.0 kHz
Frame rate : 93.750 FPS (512 SPF)
Bit depth : 24 bits
Compression mode : Lossless
Stream size : 2.50 GiB (5%)
Title : Original
Language : English
Default : No
Forced : No
Original source medium : Blu-ray

Text #1
ID : 6
Format : UTF-8
Codec ID : S_TEXT/UTF8
Codec ID/Info : UTF-8 Plain Text
Duration : 1 h 40 min
Bit rate : 3 b/s
Count of elements : 57
Stream size : 2.71 KiB (0%)
Title : Forced [HDRezka Studio]
Language : Russian
Default : No
Forced : No

Text #2
ID : 7
Format : UTF-8
Codec ID : S_TEXT/UTF8
Codec ID/Info : UTF-8 Plain Text
Duration : 1 h 40 min
Bit rate : 90 b/s
Count of elements : 1656
Stream size : 66.9 KiB (0%)
Title : Full [MENINSUB]
Language : Russian
Default : No
Forced : No

Text #3
ID : 8
Format : UTF-8
Codec ID : S_TEXT/UTF8
Codec ID/Info : UTF-8 Plain Text
Duration : 1 h 18 min
Bit rate : 1 b/s
Count of elements : 26
Stream size : 1.08 KiB (0%)
Title : Forced [DniproFilm/HDRezka Studio]
Language : Ukrainian
Default : No
Forced : No

Text #4
ID : 9
Format : UTF-8
Codec ID : S_TEXT/UTF8
Codec ID/Info : UTF-8 Plain Text
Duration : 1 h 41 min
Bit rate : 58 b/s
Count of elements : 1651
Stream size : 43.4 KiB (0%)
Title : Full
Language : English
Default : No
Forced : No

Text #5
ID : 10
Format : UTF-8
Codec ID : S_TEXT/UTF8
Codec ID/Info : UTF-8 Plain Text
Duration : 1 h 46 min
Bit rate : 71 b/s
Count of elements : 2178
Stream size : 55.5 KiB (0%)
Title : SDH
Language : English
Default : No
Forced : No

Menu
00:00:00.000 : Chapter 01
00:13:11.999 : Chapter 02
00:27:30.649 : Chapter 03
00:39:19.106 : Chapter 04
00:49:26.129 : Chapter 05
01:04:36.539 : Chapter 06
01:19:04.364 : Chapter 07
01:27:15.396 : Chapter 08

pb.wtf



Скачать Хороший, плохой, коп через торрент https://c.radikal.ru/c19/2202/6c/27d7d646cbc7.jpg Скачать, смотреть онлайн Хороший, плохой, коп бесплантно в хорошем качестве Описание: Небольшой городок в Неваде. Во время разгона свадебной драки молодая полицейская Валери Янг получает по лицу от заезжего хлыща. ... 10 10 4
Торрент: Зарегистрирован [2022-02-03 11:24] · скачан: 56 раз
Статус: √ проверено
Размер: 49.77 GB
Как cкачать? Как скачать Хороший, плохой, коп через торрент | UTorrent

% Раздел Тема Автор DL S | L
Фильмы [HD 720p, 1080p] (Хороший звук DUB, MVO) [ 5.03 GB ] Хороший плохой коп / Copshop [2021 BDRip 720p] +MVO [HDRezka Studio] bober100 Скачать
2 | 0
Фильмы 2021 [DVDrip, WEB-DLRip, HDrip] (DUB, MVO) [ 1.46 GB ] Хороший плохой коп / Copshop [2021 BDRip] bober100 Скачать
1 | 0
Фильмы 2021 [DVDrip, WEB-DLRip, HDrip] (DUB, MVO) [ 1.42 GB ] Хороший плохой коп / Copshop [2021 BDRip] - Twi7ter Скачать
9 | 0
Фильмы 2021 [DVDrip, WEB-DLRip, HDrip] (DUB, MVO) [ 746 MB ] Хороший плохой коп / Copshop [2021 BDRip] bober100 Скачать
1 | 0
Фильмы (WEB-DL 720p, 1080p) [ 8.02 GB ] Хороший плохой коп / Copshop [2021 WEB-DL 1080p] +MVO [HDRezka Studio] bober100 Скачать
1 | 0
Фильмы [HD 720p, 1080p] (Хороший звук DUB, MVO) [ 13.2 GB ] Хороший плохой коп / Copshop [2021 BDRip 1080p] +MVO [HDRezka Studio] bober100 Скачать
2 | 0
Фильмы 2021 [DVDrip, WEB-DLRip, HDrip] (DUB, MVO) [ 2.36 GB ] Хороший плохой коп / Copshop [2021 WEB-DLRip-AVC] +MVO [HDRezka Studio] bober100 Скачать
4 | 0

28-11-2019 20:33  

Отключить вcю реклaмy на сайте

    Дорогой пользователь! Огромная просьба, поблагодарите релизера, оцените раздачу и оставьте свои комментарий, если Вы скачали Хороший, плохой, коп через торрент бесплатно!
    Комментировать посты могут только пользователи прошедшие не сложную регистрацию
    Показать сообщения:    

    Хороший, плохой, коп через торрент
    Скачать бесплатно Хороший, плохой, коп
    Хороший, плохой, коп скачать торрент
    Хороший, плохой, коп смотреть онлайн
    Cкачать фильм Хороший, плохой, коп бесплатно
    Хороший, плохой, коп скачать торрент в хорошем качестве
    Хороший, плохой, коп смотреть онлайн бесплатно в хорошем качестве


    Вы не можете начинать темы
    Вы не можете отвечать на сообщения
    Вы не можете редактировать свои сообщения
    Вы не можете удалять свои сообщения
    Вы не можете голосовать в опросах
    Вы не можете прикреплять файлы к сообщениям
    Вы можете скачивать файлы