Достать ножи: Стеклянная луковица

MVO

Добыча

Дубляж

Уэнсдэй

1 сезон

Тор

Дубляж

13 клиническая

1 сезон

Жестокая ночь

MVO

Одни из нас

1 сезон

Deluxe

pack

Рекомендуем

30

Пиратка

ВАЖНО

ВАЖНО

Ghostwire

Пиратка

jed

RePack

nioh2

RePack

RDR2

RePack

NEED FOR SPEED™ PAYBACK

RePack

скачать торрент

Кинопоиск HD

Острые козырьки 6 сезон

6 сезон

FAR CRY 6

RePack

скачать торрент

Лицензия

скачать торрент

MVO

1

1 сезон

скачать торрент

1 сезон

скачать торрент

Лицензия

  

Гора Фрэгглов: Возвращение в пещеру / Fraggle Rock: Back to the Rock / Сезон: 1 / Серии: 1-13 из 13 (Джордан Каннинг, Пол Фокс, Дж.Дж. Джонсон) [2022, мультфильм, семейный, WEB-DL 2160p HDR] [Дубляж] (Apple TV+)

Гора Фрэгглов: Возвращение в пещеру через торрент pb.wtf

Размер: 61.53 GB | Добавлен: 1 год назад | Торрент скачан:14 раз
Смотреть онлайн | Скачать | Поддержите нас   

05-02-2022 11:47 Гора Фрэгглов: Возвращение в пещеру Скачать торрент  

Гора Фрэгглов: Возвращение в пещеру / Fraggle Rock: Back to the Rock



Год выпуска: 2022
Страна: США
Студия: Jim Henson Company, The, Regency Television
Жанр: мультфильм, семейный
Продолжительность: ~00:30:00

Перевод: Профессиональный (дублированный) Apple TV+
Субтитры: русские (forced, full, SDH), английские

Режиссер: Джордан Каннинг, Пол Фокс, Дж.Дж. Джонсон

Роли озвучивали: Дэн Гарза, Али Эйснер, Дженнифер Бэйн, Энди Хейуорд, Брендан Бойд, Эндрю Дж. Купер, Кира Холл, Анна Каммер, Ингрид Хансен, Лилли Купер и др.

Описание: Веселые музыкальные фрэгглы Джима Хэнсона возвращаются! Вместе с Гобо, Рэд, Уэмбли, Моки, Бубером и новыми друзьями-фрэгглами мы пустимся в уморительные эпические приключения и увидим волшебство, которое творится, когда мы любим и ценим наш общий мир.
rating
Сэмпл

Тип релиза: WEB-DL 2160p [Fraggle.Rock.Back.to.the.Rock.S01.HDR.2160p.WEB.H265-WHOSNEXT]
Контейнер: MKV
Видео: MPEG-H HEVC Video / ~24,2 Mbps / 3840x2160 / 23,976 fps / 16:9 / Main [email protected]@Main / 4:2:0 / 10 bits / 1000nits / HDR10 / BT.2020
Аудио 1: Russian AC3 / 5.1 / 48 kHz / 384 kbps |Дубляж, Apple TV+|
Аудио 2: English E-AC3+Atmos / 5.1 / 48 kHz / 768 kbps |original|
Формат субтитров: softsub [SRT]

Код:

General
Unique ID                                : 138293374128635270601888404124370316013 (0x680A55C4D1A58D91C8B1667ABB99AAED)
Complete name                            : H:\UHD\Гора Фрэгглов Возвращение в пещеру.S01.WEB-DL.2160p.HDR\Гора Фрэгглов Возвращение в пещеру.S01E01.WEB-DL.2160p.mkv
Format                                   : Matroska
Format version                           : Version 4
File size                                : 5.30 GiB
Duration                                 : 29 min 57 s
Overall bit rate                         : 25.3 Mb/s
Encoded date                             : UTC 2022-02-05 10:12:35
Writing application                      : mkvmerge v64.0.0 ('Willows') 64-bit
Writing library                          : libebml v1.4.2 + libmatroska v1.6.4
Attachments                              : poster.jpg

Video
ID                                       : 1
Format                                   : HEVC
Format/Info                              : High Efficiency Video Coding
Format profile                           : Main [email protected]@High
HDR format                               : SMPTE ST 2086, HDR10 compatible
Codec ID                                 : V_MPEGH/ISO/HEVC
Duration                                 : 29 min 57 s
Bit rate                                 : 24.2 Mb/s
Width                                    : 3 840 pixels
Height                                   : 2 160 pixels
Display aspect ratio                     : 16:9
Frame rate mode                          : Constant
Frame rate                               : 23.976 (23976/1000) FPS
Color space                              : YUV
Chroma subsampling                       : 4:2:0 (Type 2)
Bit depth                                : 10 bits
Bits/(Pixel*Frame)                       : 0.122
Stream size                              : 5.06 GiB (95%)
Language                                 : English
Default                                  : Yes
Forced                                   : No
Color range                              : Limited
Color primaries                          : BT.2020
Transfer characteristics                 : PQ
Matrix coefficients                      : BT.2020 non-constant
Mastering display color primaries        : Display P3
Mastering display luminance              : min: 0.0050 cd/m2, max: 1000 cd/m2
Maximum Content Light Level              : 1309 cd/m2
Maximum Frame-Average Light Level        : 674 cd/m2

Audio #1
ID                                       : 2
Format                                   : AC-3
Format/Info                              : Audio Coding 3
Commercial name                          : Dolby Digital
Codec ID                                 : A_AC3
Duration                                 : 29 min 57 s
Bit rate mode                            : Constant
Bit rate                                 : 384 kb/s
Channel(s)                               : 6 channels
Channel layout                           : L R C LFE Ls Rs
Sampling rate                            : 48.0 kHz
Frame rate                               : 31.250 FPS (1536 SPF)
Compression mode                         : Lossy
Stream size                              : 82.3 MiB (2%)
Title                                    : Дубляж, Apple TV+
Language                                 : Russian
Service kind                             : Complete Main
Default                                  : Yes
Forced                                   : No

Audio #2
ID                                       : 3
Format                                   : E-AC-3 JOC
Format/Info                              : Enhanced AC-3 with Joint Object Coding
Commercial name                          : Dolby Digital Plus with Dolby Atmos
Codec ID                                 : A_EAC3
Duration                                 : 29 min 57 s
Bit rate mode                            : Constant
Bit rate                                 : 768 kb/s
Channel(s)                               : 6 channels
Channel layout                           : L R C LFE Ls Rs
Sampling rate                            : 48.0 kHz
Frame rate                               : 31.250 FPS (1536 SPF)
Compression mode                         : Lossy
Stream size                              : 165 MiB (3%)
Language                                 : English
Service kind                             : Complete Main
Default                                  : No
Forced                                   : No
Complexity index                         : 16
Number of dynamic objects                : 15
Bed channel count                        : 1 channel
Bed channel configuration                : LFE

Text #1
ID                                       : 4
Format                                   : UTF-8
Codec ID                                 : S_TEXT/UTF8
Codec ID/Info                            : UTF-8 Plain Text
Duration                                 : 2 s 586 ms
Bit rate                                 : 204 b/s
Count of elements                        : 1
Stream size                              : 66.0 Bytes (0%)
Title                                    : forced
Language                                 : Russian
Default                                  : Yes
Forced                                   : No

Text #2
ID                                       : 5
Format                                   : UTF-8
Codec ID                                 : S_TEXT/UTF8
Codec ID/Info                            : UTF-8 Plain Text
Duration                                 : 29 min 54 s
Bit rate                                 : 114 b/s
Count of elements                        : 498
Stream size                              : 25.2 KiB (0%)
Title                                    : full
Language                                 : Russian
Default                                  : No
Forced                                   : No

Text #3
ID                                       : 6
Format                                   : UTF-8
Codec ID                                 : S_TEXT/UTF8
Codec ID/Info                            : UTF-8 Plain Text
Duration                                 : 28 min 22 s
Bit rate                                 : 153 b/s
Count of elements                        : 592
Stream size                              : 31.9 KiB (0%)
Title                                    : SDH
Language                                 : Russian
Default                                  : No
Forced                                   : No

Text #4
ID                                       : 7
Format                                   : UTF-8
Codec ID                                 : S_TEXT/UTF8
Codec ID/Info                            : UTF-8 Plain Text
Duration                                 : 28 min 22 s
Bit rate                                 : 75 b/s
Count of elements                        : 487
Stream size                              : 15.7 KiB (0%)
Language                                 : English
Default                                  : No
Forced                                   : No

скриншот  скриншот  скриншот  
За дорожку №1 спасибо thx: Wilmots wink




Скачать Гора Фрэгглов: Возвращение в пещеру через торрент https://images4.imagebam.com/d8/25/63/ME7JAWU_o.jpg Скачать, смотреть онлайн Гора Фрэгглов: Возвращение в пещеру бесплантно в хорошем качестве Описание: Веселые музыкальные фрэгглы Джима Хэнсона возвращаются! Вместе с Гобо, Рэд, Уэмбли, Моки, Бубером и новыми друзьями-фрэгглами мы ... 10 10 4
Info! Золотая раздача, скачанное не засчитывается.
Торрент: Зарегистрирован [2022-02-05 11:47] · скачан: 14 раз
Статус: √ проверено
Размер: 61.53 GB
Как cкачать? Как скачать Гора Фрэгглов: Возвращение в пещеру через торрент | UTorrent

28-11-2019 20:33  


Отключить вcю реклaмy на сайте, в т.ч. и в плеере онлайн просмотра!

05-02-2022 15:12 Гора Фрэгглов: Возвращение в пещеру Скачать торрент  

а будет в обычном качестве меньшего размера?
Kkillermax2013 писал(а):


как только так сразу )) ждем



    Дорогой пользователь! Огромная просьба, поблагодарите релизера, оцените раздачу и оставьте свои комментарий, если Вы скачали Гора Фрэгглов: Возвращение в пещеру через торрент бесплатно!!
    Комментировать посты могут только пользователи прошедшие не сложную регистрацию
    Показать сообщения:    


    Гора Фрэгглов: Возвращение в пещеру через торрент
    Скачать бесплатно Гора Фрэгглов: Возвращение в пещеру
    Гора Фрэгглов: Возвращение в пещеру скачать торрент
    Гора Фрэгглов: Возвращение в пещеру смотреть онлайн
    Cкачать фильм Гора Фрэгглов: Возвращение в пещеру бесплатно
    Гора Фрэгглов: Возвращение в пещеру скачать торрент в хорошем качестве
    Гора Фрэгглов: Возвращение в пещеру смотреть онлайн бесплатно в хорошем качестве
    Вы не можете начинать темы
    Вы не можете отвечать на сообщения
    Вы не можете редактировать свои сообщения
    Вы не можете удалять свои сообщения
    Вы не можете голосовать в опросах
    Вы не можете прикреплять файлы к сообщениям
    Вы можете скачивать файлы
    Гора Фрэгглов: Возвращение в пещеру / Fraggle Rock: Back to the Rock / Сезон: 1 / Серии: 1-13 из 13 [2022, мультфильм, семейный, WEB-DL 2160p HDR] [Дубляж] смотреть онлайн, скачать торрент picoco.icu