Всегда рабочее зеркало без VPN и Proxy просто перед .vidak.icu напиши любое слово или цифру, Пример http://smhj.vidak.icu

MVO

2 сезон

2 сезон

1

1 сезон

iTunes

2 сезон

13

1 сезон

Распродажа

pack

Рекомендуем

Пиратка

30

ВАЖНО

RePack

MK11

RePack

jed

RePack

fifa19

RePack

RDR2

RePack

NEED FOR SPEED™ PAYBACK

Кинопоиск HD

6 сезон

 Острые козырьки 6 сезон

Все сериалы

все сериалы на PB.wtf

RePack

FAR CRY 5

Anonymous, нам критически не хватает 5601 руб. на оплату серверов и переферии за Апрель, помоги нам пожалуйста, вся надежда только на тебя. В благодарность мы отключим тебе всю рекламу на сайте!

×
  
Magnet ссылка

Идеальная жена (Андрей Грачев) [2021, комедия, WEB-DLRip-AVC] RUS [КиноПоиск HD] от ExKinoRay pb.wtf

Идеальная жена через торрент pb.wtf

Размер: 1.39 GB | Добавлен: 3 мес. 10 д. назад | Торрент скачан:77 раз
Смотреть онлайн Идеальная жена | Скачать    Ребята, помогите собрать деньги на оплату серверов!!!

06-02-2022 11:58 Идеальная жена Скачать торрент  


Идеальная жена
Информация о фильме:
Название: Идеальная жена
Год выхода: 2021
Жанр: Комедия
Режиссер: Андрей Грачев

В ролях: Виктория Полторак, Дмитрий Белоцерковский, Михаил Полицеймако, Ольга Тураева, Остап Риммен, Софья Чурсинова

Описание: В один прекрасный день Катерина обнаружила в пиджаке мужа письмо. Она знала, что читать чужие письма нехорошо. Но ведь муж не чужой ей человек? В таком случае можно и прочесть. И по первым строчкам письма она поняла, что у ее мужа Макса, преподавателя философии, есть молодая любовница.Внезапно появившийся в доме друг семьи Виктор решил утешить Катерину. Именно он случайно и проболтался о некоторых пикантных тайнах своего друга профессора. Потянув за эти ниточки, жена узнала то, чего даже не могла себе представить.



Страна: Россия
Студия: Кинокомпания «РОС»
Продолжительность: 01:17:53
Перевод: Оригинал | КиноПоиск HD



Информация о файле:
Кодек: AVC
Формат: MKV
Качество: WEB-DLRip-AVC
Видео: MPEG-4 AVC, 1024x576, 25.000 fps, 2100 kbps
Аудио RU: AC3, 6 ch, 48 kHz, 448 kbps

x264 info: frame I:667 Avg QP:16.12 size: 88700
x264 info: frame P:31902 Avg QP:18.77 size: 23188
x264 info: frame B:84262 Avg QP:20.65 size: 5070
x264 info: consecutive B-frames: 2.8% 5.6% 6.9% 69.7% 5.2% 7.3% 0.8% 1.4% 0.2% 0.1% 0.1%
General
Unique ID : 133029936666230784045206576169459735053 (0x6414A244290741991CF2C35AEC495A0D)
Complete name : D:uTorrentРипы wolf1245Idealnaya.zhena.2021.RUS.KHD.WEB-DLRip-AVC.[wolf1245.ExKinoRay] .mkv
Format : Matroska
Format version : Version 4
File size : 1.39 GiB
Duration : 1 h 17 min
Overall bit rate : 2 549 kb/s
Movie name : Idealnaya.zhena.2021.RUS.KHD.WEB-DLRip-AVC.[wolf1245.ExKinoRay]
Encoded date : UTC 2022-02-06 11:47:32
Writing application : mkvmerge v64.0.0 ('Willows') 64-bit
Writing library : libebml v1.4.2 + libmatroska v1.6.4
Video
ID : 1
Format : AVC
Format/Info : Advanced Video Codec
Format profile : High@L4.1
Format settings : CABAC / 10 Ref Frames
Format settings, CABAC : Yes
Format settings, Reference frames : 10 frames
Codec ID : V_MPEG4/ISO/AVC
Duration : 1 h 17 min
Bit rate : 2 100 kb/s
Width : 1 024 pixels
Height : 576 pixels
Display aspect ratio : 16:9
Frame rate mode : Constant
Frame rate : 25.000 FPS
Color space : YUV
Chroma subsampling : 4:2:0
Bit depth : 8 bits
Scan type : Progressive
Bits/(Pixel*Frame) : 0.142
Stream size : 1.14 GiB (82%)
Title : -=[wolf1245.ExKinoRay]=-
Writing library : x264 core 163 r3060 5db6aa6
Encoding settings : cabac=1 / ref=10 / deblock=1:-2:-1 / analyse=0x3:0x133 / me=umh / subme=9 / psy=1 / psy_rd=1.05:0.20 / mixed_ref=1 / me_range=32 / chroma_me=1 / trellis=2 / 8x8dct=1 / cqm=0 / deadzone=21,11 / fast_pskip=1 / chroma_qp_offset=-3 / threads=10 / lookahead_threads=2 / sliced_threads=0 / nr=0 / decimate=0 / interlaced=0 / bluray_compat=0 / constrained_intra=0 / bframes=10 / b_pyramid=2 / b_adapt=2 / b_bias=0 / direct=3 / weightb=1 / open_gop=0 / weightp=2 / keyint=250 / keyint_min=25 / scenecut=40 / intra_refresh=0 / rc_lookahead=60 / rc=2pass / mbtree=0 / bitrate=2100 / ratetol=1.0 / qcomp=0.60 / qpmin=0 / qpmax=69 / qpstep=4 / cplxblur=20.0 / qblur=0.5 / vbv_maxrate=50000 / vbv_bufsize=62500 / nal_hrd=none / filler=0 / ip_ratio=1.40 / pb_ratio=1.30 / aq=3:0.80
Language : Russian
Default : Yes
Forced : No
Audio
ID : 2
Format : AC-3
Format/Info : Audio Coding 3
Commercial name : Dolby Digital
Codec ID : A_AC3
Duration : 1 h 17 min
Bit rate mode : Constant
Bit rate : 448 kb/s
Channel(s) : 6 channels
Channel layout : L R C LFE Ls Rs
Sampling rate : 48.0 kHz
Frame rate : 31.250 FPS (1536 SPF)
Compression mode : Lossy
Stream size : 250 MiB (18%)
Title : RUS | KinoPoisk HD
Language : Russian
Service kind : Complete Main
Default : Yes
Forced : No
Релиз от:
Автор релиза:
pb.wtf



Скачать Идеальная жена через торрент https://i116.fastpic.org/big/2022/0206/89/5bd6b8abb14a98e3bd9fee1c2160da89.png Скачать, смотреть онлайн Идеальная жена бесплантно в хорошем качестве Описание: В один прекрасный день Катерина обнаружила в пиджаке мужа письмо. Она знала, что читать чужие письма нехорошо. Но ведь муж не ... 7 10 3
Торрент: Зарегистрирован [2022-02-06 11:58] · скачан: 77 раз
Статус: √ проверено
Размер: 1.39 GB
Как cкачать? Как скачать Идеальная жена через торрент | UTorrent

28-11-2019 20:33  

Отключить всю рекламу на сайте

    Дорогой пользователь! Огромная просьба, поблагодарите релизера, оцените раздачу и оставьте свои комментарий, если Вы скачали Идеальная жена через торрент бесплатно!
    Комментировать посты могут только пользователи прошедшие не сложную регистрацию
    Показать сообщения:    

    Идеальная жена через торрент
    Скачать бесплатно Идеальная жена
    Идеальная жена скачать торрент
    Идеальная жена смотреть онлайн
    Cкачать фильм Идеальная жена бесплатно
    Идеальная жена скачать торрент в хорошем качестве
    Идеальная жена смотреть онлайн бесплатно в хорошем качестве


    Вы не можете начинать темы
    Вы не можете отвечать на сообщения
    Вы не можете редактировать свои сообщения
    Вы не можете удалять свои сообщения
    Вы не можете голосовать в опросах
    Вы не можете прикреплять файлы к сообщениям
    Вы можете скачивать файлы