Всегда рабочее зеркало без VPN и Proxy просто перед .vidak.icu напиши любое слово или цифру, Пример http://qqrx.vidak.icu

MVO

Лицензия

1 сезон

1

1 сезон

iTunes

1 сезон

13

1 сезон

Deluxe

pack

Рекомендуем

Пиратка

30

ВАЖНО

RePack

MK11

RePack

jed

RePack

fifa19

RePack

RDR2

RePack

NEED FOR SPEED™ PAYBACK

Кинопоиск HD

6 сезон

 Острые козырьки 6 сезон

Все сериалы

все сериалы на PB.wtf

RePack

FAR CRY 5
  
Magnet ссылка

Оленьи рога / Antlers (Скотт Купер) [2021, Ужасы, драма, детектив, BD Remux 1080p] DUB [Невафильм / КиноПоиск HD] pb.wtf

Оленьи рога через торрент pb.wtf

Размер: 25.96 GB | Добавлен: 4 мес. 23 д. назад | Торрент скачан:22 раза
Смотреть онлайн Оленьи рога | Скачать    Ребята, помогите собрать деньги на оплату серверов!!!

06-02-2022 15:54 Оленьи рога Скачать торрент  

Оленьи рога
Antlers

Год выпуска: 2021
Страна: США, Канада, Мексика
Выпущено: Fox Searchlight Pictures, Phantom Four Films, Double Dare You (DDY)
Жанр: Ужасы, драма, детектив
Продолжительность: 01:39:26
Перевод: Дублированный | Невафильм | КиноПоиск HD
Субтитры: Русские (Forced, 2 x Full), английские

Режиссер: Скотт Купер

rating

В ролях: Кери Расселл, Джеси Племонс, Джереми Т. Томас, Грэм Грин, Скотт Хэйз, Рори Кокрейн, Эми Мэдиган, Сейер Джонс, Коуди Дэвис, Лила Марлоу

Описание: У школьника в доме происходит что-то странное. Он не торопится рассказывать об этом окружающим, и только учительница начинает подозревать, что мальчику угрожает опасность, и вместе с братом-полицейским решает разобраться в ситуации. Со временем они понимают, что речь идёт не о безобидных детских страхах: в стенах старого дома притаилось нечто зловещее.

Качество: BD Remux 1080p
Формат: MKV

Видео: MPEG-4 AVC, 35.8 Мb/s, 1920x1080, 23.976 fps
Аудио #1: Rus: 48 kHz, AC3 Dolby Digital, 3/2 (L, C, R, l, r) + LFE ch, ~448 Kbps | DUB | КиноПоиск HD
Аудио #2: Rus: 48 kHz, Enhanced AC3 Dolby Digital, 3/2 (L, C, R, l, r) + LFE ch, ~448 Kbps | DUB | КиноПоиск HD
Аудио #3: Eng: 48 kHz, AC3 Dolby Digital, 3/2 (L, C, R, l, r) + LFE ch, ~640 Kbps | Original
скриншот  скриншот  скриншот  скриншот  скриншот  

Complete name : Oleni.roga.2021.BDRemux.1080p.ELEKTRI4KA.UNIONGANG.mkv
Format : Matroska
Format version : Version 4
File size : 26.0 GiB
Duration : 1 h 39 min
Overall bit rate mode : Variable
Overall bit rate : 37.2 Mb/s
Movie name : Oleni.roga.2021.BDRemux.1080p.ELEKTRI4KA.UNIONGANG.
Encoded date : UTC 2022-02-05 10:09:43
Writing application : mkvmerge v8.3.0 ('Over the Horizon') 32bit
Writing library : libebml v1.3.1 + libmatroska v1.4.2

Video
ID : 1
Format : AVC
Format/Info : Advanced Video Codec
Format profile : High@L4.1
Format settings : CABAC / 4 Ref Frames
Format settings, CABAC : Yes
Format settings, Reference frames : 4 frames
Codec ID : V_MPEG4/ISO/AVC
Duration : 1 h 39 min
Bit rate mode : Variable
Bit rate : 35.8 Mb/s
Maximum bit rate : 39.2 Mb/s
Width : 1 920 pixels
Height : 1 080 pixels
Display aspect ratio : 16:9
Frame rate mode : Constant
Frame rate : 23.976 (24000/1001) FPS
Color space : YUV
Chroma subsampling : 4:2:0
Bit depth : 8 bits
Scan type : Progressive
Bits/(Pixel*Frame) : 0.721
Stream size : 24.9 GiB (96%)
Language : English
Default : Yes
Forced : No

Audio #1
ID : 2
Format : AC-3
Format/Info : Audio Coding 3
Commercial name : Dolby Digital
Codec ID : A_AC3
Duration : 1 h 39 min
Bit rate mode : Constant
Bit rate : 448 kb/s
Channel(s) : 6 channels
Channel layout : L R C LFE Ls Rs
Sampling rate : 48.0 kHz
Frame rate : 31.250 FPS (1536 SPF)
Compression mode : Lossy
Stream size : 320 MiB (1%)
Title : DUB AC3 (KinoPoisk HD)
Language : Russian
Service kind : Complete Main
Default : Yes
Forced : Yes

Audio #2
ID : 3
Format : E-AC-3
Format/Info : Enhanced AC-3
Commercial name : Dolby Digital Plus
Codec ID : A_EAC3
Duration : 1 h 39 min
Bit rate mode : Constant
Bit rate : 448 kb/s
Channel(s) : 6 channels
Channel layout : L R C LFE Ls Rs
Sampling rate : 48.0 kHz
Frame rate : 31.250 FPS (1536 SPF)
Compression mode : Lossy
Stream size : 320 MiB (1%)
Title : DUB EAC3 (KinoPoisk HD)
Language : Russian
Service kind : Complete Main
Default : No
Forced : No

Audio #3
ID : 4
Format : AC-3
Format/Info : Audio Coding 3
Commercial name : Dolby Digital
Codec ID : A_AC3
Duration : 1 h 39 min
Bit rate mode : Constant
Bit rate : 640 kb/s
Channel(s) : 6 channels
Channel layout : L R C LFE Ls Rs
Sampling rate : 48.0 kHz
Frame rate : 31.250 FPS (1536 SPF)
Compression mode : Lossy
Stream size : 455 MiB (2%)
Title : Original
Language : English
Service kind : Complete Main
Default : No
Forced : No

Text #1
ID : 5
Format : UTF-8
Codec ID : S_TEXT/UTF8
Codec ID/Info : UTF-8 Plain Text
Duration : 23 s 65 ms
Bit rate : 116 b/s
Count of elements : 4
Stream size : 336 Bytes (0%)
Title : Forced
Language : Russian
Default : Yes
Forced : Yes

Text #2
ID : 6
Format : UTF-8
Codec ID : S_TEXT/UTF8
Codec ID/Info : UTF-8 Plain Text
Duration : 1 h 31 min
Bit rate : 41 b/s
Count of elements : 665
Stream size : 27.7 KiB (0%)
Title : Full V.1
Language : Russian
Default : No
Forced : No

Text #3
ID : 7
Format : UTF-8
Codec ID : S_TEXT/UTF8
Codec ID/Info : UTF-8 Plain Text
Duration : 1 h 33 min
Bit rate : 42 b/s
Count of elements : 679
Stream size : 28.9 KiB (0%)
Title : Full V.2
Language : Russian
Default : No
Forced : No

Text #4
ID : 8
Format : UTF-8
Codec ID : S_TEXT/UTF8
Codec ID/Info : UTF-8 Plain Text
Duration : 1 h 31 min
Bit rate : 32 b/s
Count of elements : 722
Stream size : 21.9 KiB (0%)
Title : Full
Language : English
Default : No
Forced : No

Text #5
ID : 9
Format : UTF-8
Codec ID : S_TEXT/UTF8
Codec ID/Info : UTF-8 Plain Text
Duration : 1 h 33 min
Bit rate : 36 b/s
Count of elements : 927
Stream size : 24.7 KiB (0%)
Title : SDH
Language : English
Default : No
Forced : No

Menu
00:00:00.000 : en:Chapter 01
00:07:29.157 : en:Chapter 02
00:10:09.233 : en:Chapter 03
00:16:25.609 : en:Chapter 04
00:20:36.652 : en:Chapter 05
00:25:35.450 : en:Chapter 06
00:30:32.497 : en:Chapter 07
00:35:56.779 : en:Chapter 08
00:38:08.869 : en:Chapter 09
00:42:57.074 : en:Chapter 10
00:47:30.347 : en:Chapter 11
00:51:08.315 : en:Chapter 12
00:55:35.540 : en:Chapter 13
01:00:02.348 : en:Chapter 14
01:07:38.429 : en:Chapter 15
01:14:37.890 : en:Chapter 16
01:17:53.043 : en:Chapter 17
01:21:55.201 : en:Chapter 18
01:32:25.623 : en:Chapter 19
01:34:08.517 : en:Chapter 20

pb.wtf



Скачать Оленьи рога через торрент https://i6.imageban.ru/out/2022/01/05/d255612022678dc83db5074e53aa1fea.png Скачать, смотреть онлайн Оленьи рога бесплантно в хорошем качестве Описание: У школьника в доме происходит что-то странное. Он не торопится рассказывать об этом окружающим, и только учительница начинает ... 10 10 2
Торрент: Зарегистрирован [2022-02-06 15:54] · скачан: 22 раз
Статус: √ проверено
Размер: 25.96 GB
Как cкачать? Как скачать Оленьи рога через торрент | UTorrent

% Раздел Тема Автор DL S | L
Фильмы 2021 [DVDrip, WEB-DLRip, HDrip] (DUB, MVO) [ 1.46 GB ] Оленьи рога / Antlers [2021 BDRip] - [Кинопоиск HD] Twi7ter Скачать
5 | 0
Фильмы 2021 [DVDrip, WEB-DLRip, HDrip] (DUB, MVO) [ 745 MB ] Оленьи рога / Antlers [2021 BDRip] DUB [Невафильм / КиноПоиск HD] bober100 Скачать
1 | 0
Фильмы [HD 720p, 1080p] (Хороший звук DUB, MVO) [ 4.59 GB ] Оленьи рога / Antlers [2021 BDRip 720p] DUB [Невафильм / КиноПоиск HD] bober100 Скачать
2 | 0
Фильмы 2021 [DVDrip, WEB-DLRip, HDrip] (DUB, MVO) [ 1.46 GB ] Оленьи рога / Antlers [2021 BDRip] DUB [Невафильм / КиноПоиск HD] bober100 Скачать
1 | 0
Фильмы 2021 [DVDrip, WEB-DLRip, HDrip] (DUB, MVO) [ 1.45 GB ] Оленьи рога / Antlers [2021 WEB-DLRip-AVC] MVO [Jaskier] bober100 Скачать
4 | 0
Фильмы 2021 [DVDrip, WEB-DLRip, HDrip] (DUB, MVO) [ 1.46 GB ] Оленьи рога / Antlers [2021 WEB-DLRip] MVO [Jaskier] bober100 Скачать
2 | 0
Фильмы [HD 720p, 1080p] (Хороший звук DUB, MVO) [ 12.01 GB ] Оленьи рога / Antlers [2021 BDRip 1080p] DUB [Невафильм / КиноПоиск HD] +MVO [Jaskier] +AVO [Д. Есарев] bober100 Скачать
3 | 0


Последний раз редактировалось: bober100 (2022-02-07 00:26), всего редактировалось 1 раз

28-11-2019 20:33  

Отключить всю рекламу на сайте

06-02-2022 16:13 Оленьи рога Скачать торрент  

фильм понравился. Искал что-то подобное после просмотра фильма - ритуалpb.wtf



    Дорогой пользователь! Огромная просьба, поблагодарите релизера, оцените раздачу и оставьте свои комментарий, если Вы скачали Оленьи рога через торрент бесплатно!
    Комментировать посты могут только пользователи прошедшие не сложную регистрацию
    Показать сообщения:    

    Оленьи рога через торрент
    Скачать бесплатно Оленьи рога
    Оленьи рога скачать торрент
    Оленьи рога смотреть онлайн
    Cкачать фильм Оленьи рога бесплатно
    Оленьи рога скачать торрент в хорошем качестве
    Оленьи рога смотреть онлайн бесплатно в хорошем качестве


    Вы не можете начинать темы
    Вы не можете отвечать на сообщения
    Вы не можете редактировать свои сообщения
    Вы не можете удалять свои сообщения
    Вы не можете голосовать в опросах
    Вы не можете прикреплять файлы к сообщениям
    Вы можете скачивать файлы