Лицензия

MVO

1

1 сезон

Лицензия

Лицензия

13

MVO

1 сезон

Deluxe Edition

pack

Рекомендуем

30

Repack

ВАЖНО

ВАЖНО

Ghostwire

RePack

jed

RePack

fifa19

RePack

RDR2

RePack

NEED FOR SPEED™ PAYBACK

RePack

Кинопоиск HD

 Острые козырьки 6 сезон

6 сезон

FAR CRY 6

RePack

Лицензия

MVO

1

1 сезон

1 сезон

Лицензия

  

Падение Луны / Moonfall (Роланд Эммерих) [2022, Фантастика, боевик, BDRip 1080p] DUB [iTunes] +MVO [Jaskier]

Падение Луны через торрент pb.wtf

Раздают: 8 [ 0 KB/s ]
Размер: 10.75 GB | Добавлен: 5 мес. 12 д. назад | Торрент скачан:463 раза
Смотреть онлайн Падение Луны | Скачать   

07-02-2022 05:31 Падение Луны Скачать торрент  

Падение Луны
Moonfall

Год выпуска: 2022
Страна: США, Канада, Китай
Выпущено: AGC Studios, Centropolis Entertainment, H Brothers, Huayi Brothers Media, Lionsgate, Street Entertainment, UK Moonfall
Жанр: Фантастика, боевик
Продолжительность: 02:10:16
Перевод:
#1: Дублированный | iTunes
#2: Профессиональный многоголосый | Jaskier
Субтитры: Русские (форсированные), английские

Режиссер: Роланд Эммерих

rating

В ролях: Холли Берри, Патрик Уилсон, Джон Брэдли, Майкл Пенья, Дональд Сазерленд, Чарли Пламмер, Юй Вэньвэнь, Эме Иквуакор, Каролина Бартчак, Максим Рой, Стивен Богерт, Хэйзел Наджент

Описание: По неизвестным причинам Луна сошла с орбиты Земли, и теперь человечеству грозит полное уничтожение. Глава НАСА и бывшая астронавтка Джо Фаулер убеждена в том, что знает, как спасти планету, но верят в это лишь ее бывший коллега Брайан Харпер и конспиролог К. С. Хаусман. За несколько недель до столкновения спутника с Землей героям предстоит совершить невозможное и предотвратить конец света. «Падение Луны» — фильм-катастрофа от мастера жанра Роланда Эммериха с Холли Берри в главной роли.

Качество: BDRip 1O8Op
Формат: MKV

Видео: MPEG-4 AVC, 1920x804, 10.3 Mbit/s, 23.976 fps
Аудио #01: 48 kHz, AC3, 5.1, 384 Kbps | Дублированный | RUS |
Аудио #02: 48 kHz, AC3, 5.1, 448 Kbps | Профессиональный многоголосый | Jaskier | RUS |
Аудио #03: 48 kHz, AC3, 5.1, 640 Kbps | Оригинал | ENG |
скриншот  скриншот  скриншот  скриншот  скриншот  

General
Unique ID : 40138285844856498792878197590520631269 (0x1E325A4816E8EB2A88D611D3AA360FE5)
Complete name : D:Video1Moonfall.2022.D.MVO.BDRip.1080p.seleZen.mkv
Format : Matroska
Format version : Version 4
File size : 10.7 GiB
Duration : 2 h 10 min
Overall bit rate : 11.8 Mb/s
Movie name : Moonfall 2022 from seleZen
Encoded date : UTC 2022-04-15 22:27:34
Writing application : mkvmerge v59.0.0 ('Shining Star') 64-bit
Writing library : libebml v1.4.2 + libmatroska v1.6.4

Video
ID : 1
Format : AVC
Format/Info : Advanced Video Codec
Format profile : [email protected]
Format settings : CABAC / 5 Ref Frames
Format settings, CABAC : Yes
Format settings, Reference : 5 frames
Codec ID : V_MPEG4/ISO/AVC
Duration : 2 h 10 min
Bit rate : 10.3 Mb/s
Width : 1 920 pixels
Height : 804 pixels
Display aspect ratio : 2.40:1
Frame rate mode : Constant
Frame rate : 23.976 (24000/1001) FPS
Color space : YUV
Chroma subsampling : 4:2:0
Bit depth : 8 bits
Scan type : Progressive
Bits/(Pixel*Frame) : 0.279
Stream size : 9.40 GiB (88%)
Title : MTeam
Writing library : x264 core 157 r2938 2b00a84 [email protected] Mod
Encoding settings : cabac=1 / ref=5 / deblock=1:-3:-3 / analyse=0x3:0x133 / me=umh / subme=10 / psy=1 / psy_rd=1.05:0.00 / mixed_ref=1 / me_range=32 / chroma_me=1 / trellis=2 / 8x8dct=1 / cqm=0 / deadzone=21,11 / fast_pskip=0 / chroma_qp_offset=-2 / threads=12 / lookahead_threads=2 / sliced_threads=0 / nr=0 / decimate=0 / interlaced=0 / bluray_compat=0 / constrained_intra=0 / bframes=8 / b_pyramid=2 / b_adapt=2 / b_bias=0 / direct=3 / weightb=1 / open_gop=0 / weightp=2 / keyint=250 / keyint_min=24 / scenecut=40 / intra_refresh=0 / rc_lookahead=250 / rc=crf / mbtree=0 / crf=16.8 / qcomp=0.60 / qpmin=0 / qpmax=69 / qpstep=4 / vbv_maxrate=62500 / vbv_bufsize=78125 / crf_max=0.0 / nal_hrd=none / filler=0 / ip_ratio=1.30 / pb_ratio=1.20 / aq=3:0.80
Language : English
Default : Yes
Forced : No
Color range : Limited
Color primaries : BT.709
Matrix coefficients : BT.709

Audio #1
ID : 2
Format : AC-3
Format/Info : Audio Coding 3
Commercial name : Dolby Digital
Codec ID : A_AC3
Duration : 2 h 10 min
Bit rate mode : Constant
Bit rate : 384 kb/s
Channel(s) : 6 channels
Channel layout : L R C LFE Ls Rs
Sampling rate : 48.0 kHz
Frame rate : 31.250 FPS (1536 SPF)
Compression mode : Lossy
Stream size : 358 MiB (3%)
Title : iTunes
Language : Russian
Service kind : Complete Main
Default : Yes
Forced : Yes

Audio #2
ID : 3
Format : AC-3
Format/Info : Audio Coding 3
Commercial name : Dolby Digital
Codec ID : A_AC3
Duration : 2 h 10 min
Bit rate mode : Constant
Bit rate : 448 kb/s
Channel(s) : 6 channels
Channel layout : L R C LFE Ls Rs
Sampling rate : 48.0 kHz
Frame rate : 31.250 FPS (1536 SPF)
Compression mode : Lossy
Stream size : 417 MiB (4%)
Title : MVO [Jaskier]
Language : Russian
Service kind : Complete Main
Default : No
Forced : No

Audio #3
ID : 4
Format : AC-3
Format/Info : Audio Coding 3
Commercial name : Dolby Digital
Codec ID : A_AC3
Duration : 2 h 10 min
Bit rate mode : Constant
Bit rate : 640 kb/s
Channel(s) : 6 channels
Channel layout : L R C LFE Ls Rs
Sampling rate : 48.0 kHz
Frame rate : 31.250 FPS (1536 SPF)
Compression mode : Lossy
Stream size : 596 MiB (5%)
Title : Original
Language : English
Service kind : Complete Main
Default : No
Forced : No

Text #1
ID : 5
Format : UTF-8
Codec ID : S_TEXT/UTF8
Codec ID/Info : UTF-8 Plain Text
Duration : 46 min 54 s
Bit rate : 1 b/s
Count of elements : 9
Stream size : 380 Bytes (0%)
Title : Forced
Language : Russian
Default : Yes
Forced : Yes

Text #2
ID : 6
Format : UTF-8
Codec ID : S_TEXT/UTF8
Codec ID/Info : UTF-8 Plain Text
Duration : 2 h 0 min
Bit rate : 69 b/s
Count of elements : 2261
Stream size : 61.8 KiB (0%)
Title : Full
Language : English
Default : No
Forced : No

Text #3
ID : 7
Format : UTF-8
Codec ID : S_TEXT/UTF8
Codec ID/Info : UTF-8 Plain Text
Duration : 2 h 0 min
Bit rate : 72 b/s
Count of elements : 2266
Stream size : 64.1 KiB (0%)
Title : SDH
Language : English
Default : No
Forced : No

Menu
00:00:00.000 : Chapter 01
00:05:58.275 : Chapter 02
00:13:28.057 : Chapter 03
00:21:14.565 : Chapter 04
00:30:58.940 : Chapter 05
00:38:36.856 : Chapter 06
00:47:33.726 : Chapter 07
00:55:51.848 : Chapter 08
01:03:39.816 : Chapter 09
01:10:14.710 : Chapter 10
01:15:38.534 : Chapter 11
01:22:37.369 : Chapter 12
01:30:10.780 : Chapter 13
01:35:47.784 : Chapter 14
01:45:09.178 : Chapter 15
01:56:22.976 : Chapter 16




Скачать Падение Луны через торрент https://i3-imageban-ru.translate.goog/out/2022/04/16/7bbe9235ede270e2ff6430776a1959b8.png Скачать, смотреть онлайн Падение Луны бесплантно в хорошем качестве Описание: По неизвестным причинам Луна сошла с орбиты Земли, и теперь человечеству грозит полное уничтожение. Глава НАСА и бывшая ... 9 10 42
Info! Золотая раздача, скачанное не засчитывается.
Торрент: Зарегистрирован [2022-04-16 04:50] · скачан: 463 раз
Статус: √ проверено
Размер: 10.75 GB
Как cкачать? Как скачать Падение Луны через торрент | UTorrent

% Раздел Тема Автор DL S | L
Фильмы 2022 [DVDrip, WEB-DLRip, HDrip] (DUB, MVO) [ 2.06 GB ] Падение Луны / Moonfall | IVI | DLRip bober100 Скачать
6 | 0
Фильмы 2022 [DVDrip, WEB-DLRip, HDrip] (DUB, MVO) [ 3.06 GB ] Падение Луны / Moonfall | Jaskier | HDRip-AVC Lithuania Скачать
3 | 1
Ultra HD (UHD: 2K, 4K, 8K) [ 72.72 GB ] Падение Луны / Moonfall | Jaskier | 2160p, (Dolby Vision bober100 Скачать
1 | 0
Фильмы (Blu-ray, BD-Remux, HDDVD) [ 28.86 GB ] Падение Луны / Moonfall | Jaskier | BD Remux 1080p bober100 Скачать
6 | 0
Фильмы 2022 [DVDrip, WEB-DLRip, HDrip] (DUB, MVO) [ 1.47 GB ] Падение Луны / Moonfall | Jaskier | DLRip bober100 Скачать
13 | 0
Фильмы [HD 720p, 1080p] (Хороший звук DUB, MVO) [ 4.67 GB ] Падение Луны / Moonfall | Jaskier | 720p bober100 Скачать
11 | 0
Ultra HD (UHD: 2K, 4K, 8K) [ 61.68 GB ] Падение Луны / Moonfall | Jaskier | 2160p bober100 Скачать
1 | 0



Последний раз редактировалось: bober100 (2022-04-16 09:31), всего редактировалось 10 раз(а)

28-11-2019 20:33  

Отключить вcю реклaмy на сайте

02-04-2022 10:37 Падение Луны Скачать торрент  

такой фигни давно не видел )



03-04-2022 12:58 Падение Луны Скачать торрент  

Для любителей фантастики, фильм совсем не плох)) на разок посмотреть можно, лично мне понравился, практически на одном дыхании, хоть и присутствуют неправдоподобные моменты и были забавними в фильме, достоен 5 ти баллов))



09-04-2022 15:51 Падение Луны Скачать торрент  

идея хорошая. постановка так себе. актеры тоже не особо стараются.
этот фильм бы, да Нилу Бломкампу. Ухх отличный вышел бы фильмец



12-04-2022 19:04 Падение Луны Скачать торрент  

Победитель в номинации - худший фильм разочарование года! ))



    Дорогой пользователь! Огромная просьба, поблагодарите релизера, оцените раздачу и оставьте свои комментарий, если Вы скачали Падение Луны через торрент бесплатно!!
    Комментировать посты могут только пользователи прошедшие не сложную регистрацию
    Показать сообщения:    


    Падение Луны через торрент
    Скачать бесплатно Падение Луны
    Падение Луны скачать торрент
    Падение Луны смотреть онлайн
    Cкачать фильм Падение Луны бесплатно
    Падение Луны скачать торрент в хорошем качестве
    Падение Луны смотреть онлайн бесплатно в хорошем качестве
    Вы не можете начинать темы
    Вы не можете отвечать на сообщения
    Вы не можете редактировать свои сообщения
    Вы не можете удалять свои сообщения
    Вы не можете голосовать в опросах
    Вы не можете прикреплять файлы к сообщениям
    Вы можете скачивать файлы