Доктор Стрэндж

Лицензия

Добыча

Дубляж

Дом дракона

1 сезон

Тор

Дубляж

В эфире

Дубляж

Там, где раки поют

MVO

Властелин колец

1 сезон

Ultimate

pack

Рекомендуем

30

Пиратка

ВАЖНО

ВАЖНО

Ghostwire

Пиратка

jed

RePack

nioh2

RePack

RDR2

RePack

NEED FOR SPEED™ PAYBACK

RePack

скачать торрент

Кинопоиск HD

Острые козырьки 6 сезон

6 сезон

FAR CRY 6

RePack

скачать торрент

Лицензия

скачать торрент

MVO

1

1 сезон

скачать торрент

1 сезон

скачать торрент

Лицензия

  

Женщина в доме напротив девушки в окне / The Woman in the House Across the Street from the Girl in the Window / Сезон: 1 / Серии: 1-8 из 8 (Майкл Леманн) [2022, Триллер, драма, комедия, криминал, детектив, WEB-DLRip-AVC] Дубляж [VSI Moscow / Netflix]

Женщина в доме напротив девушки в окне через торрент pb.wtf

Раздают: 1 [ 0 KB/s ]
Размер: 3.26 GB | Добавлен: 9 мес. назад | Торрент скачан:69 раз
Смотреть онлайн | Скачать   

07-02-2022 10:55 Женщина в доме напротив девушки в окне Скачать торрент  

Женщина в доме напротив девушки в окне
The Woman in the House Across the Street from the Girl in the Window

Год выпуска: 2022
Страна: США
Выпущено: Gloria Sanchez Productions
Жанр: Триллер, драма, комедия, криминал, детектив
Продолжительность: ~ 00:30:00
Перевод: Дублированный | VSI Moscow по заказу Netflix
Субтитры: Русские (Forced, Full-Netflix)

Режиссер: Майкл Леманн

rating

В ролях: Майкл Или, Аппи Пратт, Николь Пуллиам, Кристен Белл, Том Райли, Рэйчел Дугай, Кристофер Чен, Абхи Триведи, Шелли Хенниг, Камерон Бриттон

Описание: Сердце Анны разбито, и дни тянутся безликой чередой. С бокалом вина у окна, она наблюдает, как жизнь проходит мимо, пока однажды в дом напротив не переезжает симпатичный сосед с очаровательной дочкой. Анна начинает думать, что это свет в конце тоннеля, но тут на её глазах происходит жестокое убийство… Или ей показалось?

Качество: WEB-DLRip-AVC
Формат: MKV

Видео: MPEG-4 AVC, 1024x576 (16:9), 1800 kbps (0.127 b/px), 23.976 fps
Аудио: 48 kHz, AC3, 3/2 (L,C,R,l,r) + LFE ch, ~448 kbps
скриншот  скриншот  скриншот  скриншот  

Общее
Уникальный идентификатор : 316644653901123628735210084845541921557 (0xEE378AC4F514E32D73093E37AAD41315)
Полное имя : D:фильмы и сериалыThe.Woman.in.the.House.Across.the.Street.from.the.Girl.in.the.Window.S01.WEB-DLRip-AVCThe.Woman.in.the.House.Across.the.Street.from.the.Girl.in.the.Window.S01E01.WEB-DLRip-AVC.TR.mkv
Формат : Matroska
Версия формата : Version 4
Размер файла : 473 Мбайт
Продолжительность : 29 м. 26 с.
Общий поток : 2 246 Кбит/сек
Дата кодирования : UTC 2022-01-29 10:08:16
Программа кодирования : mkvmerge v35.0.0 ('All The Love In The World') 64-bit
Библиотека кодирования : libebml v1.3.9 + libmatroska v1.5.2

Видео
Идентификатор : 1
Формат : AVC
Формат/Информация : Advanced Video Codec
Профиль формата : [email protected]
Настройки формата : CABAC / 9 Ref Frames
Параметр CABAC формата : Да
Параметр RefFrames формата : 9 кадров
Идентификатор кодека : V_MPEG4/ISO/AVC
Продолжительность : 29 м. 24 с.
Битрейт : 1 800 Кбит/сек
Ширина : 1 024 пикселя
Высота : 576 пикселей
Соотношение сторон : 16:9
Режим частоты кадров : Постоянный
Частота кадров : 23,976 (24000/1001) кадра/сек
Цветовое пространство : YUV
Субдискретизация насыщенности : 4:2:0
Битовая глубина : 8 бит
Тип развёртки : Прогрессивная
Бит/(Пиксели*Кадры) : 0.127
Размер потока : 378 Мбайт (80%)
Библиотека кодирования : x264 core 146 r2538 121396c
Настройки программы : cabac=1 / ref=9 / deblock=1:-2:-1 / analyse=0x3:0x113 / me=umh / subme=10 / psy=1 / psy_rd=1.00:0.15 / mixed_ref=1 / me_range=32 / chroma_me=1 / trellis=2 / 8x8dct=1 / cqm=0 / deadzone=21,11 / fast_pskip=0 / chroma_qp_offset=-3 / threads=18 / lookahead_threads=3 / sliced_threads=0 / nr=0 / decimate=1 / interlaced=0 / bluray_compat=0 / constrained_intra=0 / bframes=8 / b_pyramid=2 / b_adapt=2 / b_bias=0 / direct=3 / weightb=1 / open_gop=0 / weightp=2 / keyint=240 / keyint_min=23 / scenecut=40 / intra_refresh=0 / rc_lookahead=40 / rc=2pass / mbtree=0 / bitrate=1800 / ratetol=1.0 / qcomp=0.60 / qpmin=0 / qpmax=69 / qpstep=4 / cplxblur=20.0 / qblur=0.5 / vbv_maxrate=14000 / vbv_bufsize=14000 / nal_hrd=none / filler=0 / ip_ratio=1.40 / pb_ratio=1.30 / aq=1:1.00
Default : Да
Forced : Нет

Аудио
Идентификатор : 2
Формат : AC-3
Формат/Информация : Audio Coding 3
Коммерческое название : Dolby Digital
Идентификатор кодека : A_AC3
Продолжительность : 29 м. 26 с.
Вид битрейта : Постоянный
Битрейт : 448 Кбит/сек
Каналы : 6 каналов
Channel layout : L R C LFE Ls Rs
Частота : 48,0 КГц
Частота кадров : 31,250 кадров/сек (1536 SPF)
Метод сжатия : С потерями
Размер потока : 94,3 Мбайт (20%)
Заголовок : VSI Moscow
Язык : Russian
Service kind : Complete Main
Default : Да
Forced : Нет

Текст #1
Идентификатор : 3
Формат : UTF-8
Идентификатор кодека : S_TEXT/UTF8
Идентификатор кодека/Информация : UTF-8 Plain Text
Продолжительность : 27 м. 57 с.
Битрейт : 3 бит/сек
Count of elements : 17
Размер потока : 738 байт (0%)
Заголовок : Forced
Язык : Russian
Default : Да
Forced : Нет

Текст #2
Идентификатор : 4
Формат : UTF-8
Идентификатор кодека : S_TEXT/UTF8
Идентификатор кодека/Информация : UTF-8 Plain Text
Продолжительность : 27 м. 57 с.
Битрейт : 55 бит/сек
Count of elements : 319
Размер потока : 11,3 Кбайт (0%)
Язык : Russian
Default : Нет
Forced : Нет

Когда раздача ведётся путём добавления новых серий, при каждом добавлении создётся новый торрент. Чтобы начать докачку новой серии, пользователям необходимо сделать следующее:
(1) остановить скачивание,
(2) удалить старый торрент у себя из клиента (старые серии удалять не надо),
(3) скачать новый торрент и запустить его у себя в клиенте вместо старого, при этом указать клиенту путь в старую папку, куда и должно происходить скачивание новых серий.
Ваш клиент при этом должен произвести хеширование (проверку) старой папки (если не производит сам - помогите ему сделать это), и будет докачивать только те серии, которых у вас ещё нет. Старые серии при этом не удаляются, а продолжают раздаваться!
Eсли вы уже удалили старые серии, то предотвратить повторную закачку старых серий можно, отжав галочку в соответсвующих местах при запуске нового торрента. По возможности, желательно не удалять старые серии как можно дольше, чтобы релизёр не столько продолжал раздавать старые серии, а смог сконцентрироваться на новых.




Скачать Женщина в доме напротив девушки в окне через торрент https://i3-imageban-ru.translate.goog/out/2022/01/29/5fe00421b2c38c9c29af4b3f4608e6c5.jpg Скачать, смотреть онлайн Женщина в доме напротив девушки в окне бесплантно в хорошем качестве Описание: Сердце Анны разбито, и дни тянутся безликой чередой. С бокалом вина у окна, она наблюдает, как жизнь проходит мимо, пока однажды ... 10 10 2
Торрент: Зарегистрирован [2022-02-07 10:55] · скачан: 69 раз
Статус: √ проверено
Размер: 3.26 GB
Как cкачать? Как скачать Женщина в доме напротив девушки в окне через торрент | UTorrent

% Раздел Тема Автор DL S | L
Зарубежные сериалы [ 10.93 GB ] Женщина в доме напротив девушки в окне / The Woman in the House Across the Street from the Girl in the Window / Сезон: 1 / Серии: 1-8 из 8 | DUB | 1080p bober100 Скачать
2 | 0
Зарубежные сериалы [ 9.48 GB ] Женщина в доме напротив девушки в окне / The Woman in the House Across the Street from the Girl in the Window / Сезон: 1 / Серии: 1-8 | Дубляж | 1080p killermax2013 Скачать
2 | 0

28-11-2019 20:33  


Отключить вcю реклaмy на сайте, в т.ч. и в плеере онлайн просмотра!

07-02-2022 14:33 Женщина в доме напротив девушки в окне Скачать торрент  

скучный или как?



    Дорогой пользователь! Огромная просьба, поблагодарите релизера, оцените раздачу и оставьте свои комментарий, если Вы скачали Женщина в доме напротив девушки в окне через торрент бесплатно!!
    Комментировать посты могут только пользователи прошедшие не сложную регистрацию
    Показать сообщения:    


    Женщина в доме напротив девушки в окне через торрент
    Скачать бесплатно Женщина в доме напротив девушки в окне
    Женщина в доме напротив девушки в окне скачать торрент
    Женщина в доме напротив девушки в окне смотреть онлайн
    Cкачать фильм Женщина в доме напротив девушки в окне бесплатно
    Женщина в доме напротив девушки в окне скачать торрент в хорошем качестве
    Женщина в доме напротив девушки в окне смотреть онлайн бесплатно в хорошем качестве
    Вы не можете начинать темы
    Вы не можете отвечать на сообщения
    Вы не можете редактировать свои сообщения
    Вы не можете удалять свои сообщения
    Вы не можете голосовать в опросах
    Вы не можете прикреплять файлы к сообщениям
    Вы можете скачивать файлы
    Женщина в доме напротив девушки в окне / The Woman in the House Across the Street from the Girl in the Window / Сезон: 1 / Серии: 1-8 из 8 [2022, Триллер, драма, комедия, криминал, детектив, WEB-DLRip-AVC] Дубляж [VSI Moscow / Netflix] смотреть онлайн, скачать торрент picoco.icu