Достать ножи: Стеклянная луковица

MVO

Добыча

Дубляж

Уэнсдэй

1 сезон

Тор

Дубляж

13 клиническая

1 сезон

Жестокая ночь

MVO

Одни из нас

1 сезон

Deluxe

pack

Рекомендуем

30

Пиратка

ВАЖНО

ВАЖНО

Ghostwire

Пиратка

jed

RePack

nioh2

RePack

RDR2

RePack

NEED FOR SPEED™ PAYBACK

RePack

скачать торрент

Кинопоиск HD

Острые козырьки 6 сезон

6 сезон

FAR CRY 6

RePack

скачать торрент

Лицензия

скачать торрент

MVO

1

1 сезон

скачать торрент

1 сезон

скачать торрент

Лицензия

  

Разочарование / Disenchantment / Сезон: 4 / Серии: 1-10 из 10 (Мэтт Грейнинг) [2022, фэнтези, комедия, приключения, WEB-DL 1080p] Дубляж (rus, ukr) [Пифагор / Netflix]

Разочарование через торрент pb.wtf

Раздают: 3 [ 0.1 KB/s ]
Размер: 7.78 GB | Добавлен: 11 мес. назад | Торрент скачан:157 раз
Смотреть онлайн | Скачать | Поддержите нас   

09-02-2022 17:51 Разочарование Скачать торрент  

Разочарование
Disenchantment

Год выпуска: 2022
Страна: США
Выпущено: Curiosity Company, NetFlix, The ULULU Company
Жанр: Мультсериал, фэнтези, комедия, приключения
Продолжительность: ~ 00:30:00
Перевод: Дублированный | Пифагор по заказу Netflix
Субтитры: Русские (Full, Forced), украинские (Forced, Full), английские (SDH)

Режиссёр: Мэтт Грейнинг

В ролях: Эрик Андре, Мэтт Берри, Джон Ди Маджио, Нат Факсон, Ноэль Филдинг, Дэвид Херман, Эбби Джейкобсон, Морис ЛаМарш, Тресс МакНилл, Билли Уэст

Описание:Действие разворачивается в Средневековье в королевстве Бинландия, где живёт юная принцесса-алкоголичка Бин. Отказавшись выходить замуж, Бин отправляется в путешествие по стране в компании эльфа и демона. По дороге трио встретит множество фантастических тварей и дураков людского происхождения

rating

Качество: WEB-DL 1080p
Формат: MKV

Видео: MPEG-4 AVC, ~ 3000 Кбит/с, 1920х1080, 23.976 кадр/с
Аудио №1: E-AC-3, 48 kHz, 6 ch, 640 kbps
Аудио №2: E-AC-3, 48 kHz, 6 ch, 640 kbps
Аудио №3: E-AC-3, 48 kHz, 6 ch, 640 kbps
скриншот  скриншот  скриншот  

скриншот  скриншот  скриншот  

General
Unique ID : 115657910412666711326035036579463551162 (0x5702E73E7738D91D422F16AD8AC9D8BA)
Complete name : S:\Disenchantment. Part 4. By Wild_Cat\Disenchantment. Part 4. Episode 01. By Wild_Cat.mkv
Format : Matroska
Format version : Version 4
File size : 958 MiB
Duration : 28 min 38 s
Overall bit rate mode : Variable
Overall bit rate : 4 675 kb/s
Movie name : Disenchantment. Part 4. Episode 01. By Wild_Cat
Encoded date : UTC 2022-02-09 19:12:47
Writing application : mkvmerge v65.0.0 ('Too Much') 64-bit
Writing library : libebml v1.4.2 + libmatroska v1.6.4
Cover : Yes
Attachments : cover.jpg / small_cover.jpg / cover_land.jpg / small_cover_land.jpg

Video
ID : 1
Format : AVC
Format/Info : Advanced Video Codec
Format profile : [email protected]
Format settings : CABAC / 4 Ref Frames
Format settings, CABAC : Yes
Format settings, Reference : 4 frames
Codec ID : V_MPEG4/ISO/AVC
Duration : 28 min 36 s
Bit rate mode : Variable
Bit rate : 2 753 kb/s
Maximum bit rate : 20.0 Mb/s
Width : 1 920 pixels
Height : 1 080 pixels
Display aspect ratio : 16:9
Frame rate mode : Constant
Frame rate : 23.976 (24000/1001) FPS
Color space : YUV
Chroma subsampling : 4:2:0
Bit depth : 8 bits
Scan type : Progressive
Bits/(Pixel*Frame) : 0.055
Stream size : 563 MiB (59%)
Title : by Wild_Cat
Writing library : x264 core 148 r2727 7d026e8
Encoding settings : cabac=1 / ref=4 / deblock=1:0:0 / analyse=0x3:0x111 / me=umh / subme=10 / psy=1 / psy_rd=1.00:0.00 / mixed_ref=1 / me_range=120 / chroma_me=1 / trellis=2 / 8x8dct=1 / cqm=0 / deadzone=21,11 / fast_pskip=1 / chroma_qp_offset=-2 / threads=8 / lookahead_threads=2 / sliced_threads=0 / nr=0 / decimate=1 / interlaced=0 / bluray_compat=0 / stitchable=1 / constrained_intra=0 / bframes=16 / b_pyramid=2 / b_adapt=2 / b_bias=0 / direct=3 / weightb=1 / open_gop=0 / weightp=2 / keyint=240 / keyint_min=121 / scenecut=0 / intra_refresh=0 / rc_lookahead=240 / rc=crf / mbtree=1 / crf=25.0 / qcomp=0.50 / qpmin=6 / qpmax=51 / qpstep=4 / vbv_maxrate=20000 / vbv_bufsize=25000 / crf_max=0.0 / nal_hrd=vbr / filler=0 / ip_ratio=1.40 / aq=1:0.80
Language : Multiple languages
Default : Yes
Forced : No

Audio #1
ID : 2
Format : E-AC-3
Format/Info : Enhanced AC-3
Commercial name : Dolby Digital Plus
Codec ID : A_EAC3
Duration : 28 min 38 s
Bit rate mode : Constant
Bit rate : 640 kb/s
Channel(s) : 6 channels
Channel layout : L R C LFE Ls Rs
Sampling rate : 48.0 kHz
Frame rate : 31.250 FPS (1536 SPF)
Compression mode : Lossy
Stream size : 131 MiB (14%)
Title : Дубляж - "Пифагор"
Language : Russian
Service kind : Complete Main
Default : Yes
Forced : No

Audio #2
ID : 3
Format : E-AC-3
Format/Info : Enhanced AC-3
Commercial name : Dolby Digital Plus
Codec ID : A_EAC3
Duration : 28 min 38 s
Bit rate mode : Constant
Bit rate : 640 kb/s
Channel(s) : 6 channels
Channel layout : L R C LFE Ls Rs
Sampling rate : 48.0 kHz
Frame rate : 31.250 FPS (1536 SPF)
Compression mode : Lossy
Stream size : 131 MiB (14%)
Title : Дубляж - "Постмодерн"
Language : Ukrainian
Service kind : Complete Main
Default : No
Forced : No

Audio #3
ID : 4
Format : E-AC-3
Format/Info : Enhanced AC-3
Commercial name : Dolby Digital Plus
Codec ID : A_EAC3
Duration : 28 min 38 s
Bit rate mode : Constant
Bit rate : 640 kb/s
Channel(s) : 6 channels
Channel layout : L R C LFE Ls Rs
Sampling rate : 48.0 kHz
Frame rate : 31.250 FPS (1536 SPF)
Compression mode : Lossy
Stream size : 131 MiB (14%)
Title : Original
Language : English
Service kind : Complete Main
Default : No
Forced : No

Text #1
ID : 5
Format : UTF-8
Codec ID : S_TEXT/UTF8
Codec ID/Info : UTF-8 Plain Text
Duration : 26 min 52 s
Bit rate : 94 b/s
Count of elements : 377
Stream size : 18.6 KiB (0%)
Title : Русский (Full)
Language : Russian
Default : No
Forced : No

Text #2
ID : 6
Format : UTF-8
Codec ID : S_TEXT/UTF8
Codec ID/Info : UTF-8 Plain Text
Duration : 26 min 52 s
Bit rate : 1 b/s
Count of elements : 6
Stream size : 233 Bytes (0%)
Title : Русский (Forced)
Language : Russian
Default : Yes
Forced : No

Text #3
ID : 7
Format : UTF-8
Codec ID : S_TEXT/UTF8
Codec ID/Info : UTF-8 Plain Text
Duration : 26 min 52 s
Bit rate : 103 b/s
Count of elements : 377
Stream size : 20.4 KiB (0%)
Title : Українська (Full)
Language : Ukrainian
Default : No
Forced : No

Text #4
ID : 8
Format : UTF-8
Codec ID : S_TEXT/UTF8
Codec ID/Info : UTF-8 Plain Text
Duration : 26 min 52 s
Bit rate : 1 b/s
Count of elements : 7
Stream size : 312 Bytes (0%)
Title : Українська (Forced)
Language : Ukrainian
Default : No
Forced : No

Text #5
ID : 9
Format : UTF-8
Codec ID : S_TEXT/UTF8
Codec ID/Info : UTF-8 Plain Text
Duration : 25 min 55 s
Bit rate : 82 b/s
Count of elements : 533
Stream size : 15.7 KiB (0%)
Title : English (SDH)
Language : English
Default : No
Forced : No




Скачать Разочарование через торрент https://i7-imageban-ru.translate.goog/out/2022/01/26/ddbb1cb83a154b052e9b9892705d4086.jpg Скачать, смотреть онлайн Разочарование бесплантно в хорошем качестве Описание:Действие разворачивается в Средневековье в королевстве Бинландия, где живёт юная принцесса-алкоголичка Бин. Отказавшись выходить ... 10 10 3
Info! Золотая раздача, скачанное не засчитывается.
Торрент: Зарегистрирован [2022-02-10 08:23] · скачан: 157 раз
Статус: √ проверено
Размер: 7.78 GB
Как cкачать? Как скачать Разочарование через торрент | UTorrent

% Раздел Тема Автор DL S | L
Мультсериалы [ 19.87 GB ] Разочарование / Disenchantment / Сезон: 1 / Серии: 1-20 из 20 | TVShows | 1080p bober100 Скачать
1 | 0
Мультсериалы [ 12.67 GB ] Разочарование / Disenchantment / Сезон: 1 / Серии: 1-20 из 20 | TVShows | 720p bober100 Скачать
1 | 0
Мультсериалы [ 10.42 GB ] Разочарование / Disenchantment / Сезон: 1-3 / Серии: 1-30 из 30 | Пифагор | DLRip killermax2013 Скачать
1 | 1
Мультсериалы [ 6.67 GB ] Разочарование / Disenchantment / Сезон: 1 / Серии: 1-10 из 10 | Jaskier | 720p bober100 Скачать
1 | 0
Мультсериалы [ 3.75 GB ] Разочарование / Disenchantment / Сезон: 1 / Серии: 1-10 из 10 | Jaskier | DLRip bober100 Скачать
2 | 0



Последний раз редактировалось: bober100 (2022-02-10 08:23), всего редактировалось 1 раз

28-11-2019 20:33  


Отключить вcю реклaмy на сайте, в т.ч. и в плеере онлайн просмотра!

    Дорогой пользователь! Огромная просьба, поблагодарите релизера, оцените раздачу и оставьте свои комментарий, если Вы скачали Разочарование через торрент бесплатно!!
    Комментировать посты могут только пользователи прошедшие не сложную регистрацию
    Показать сообщения:    


    Разочарование через торрент
    Скачать бесплатно Разочарование
    Разочарование скачать торрент
    Разочарование смотреть онлайн
    Cкачать фильм Разочарование бесплатно
    Разочарование скачать торрент в хорошем качестве
    Разочарование смотреть онлайн бесплатно в хорошем качестве
    Вы не можете начинать темы
    Вы не можете отвечать на сообщения
    Вы не можете редактировать свои сообщения
    Вы не можете удалять свои сообщения
    Вы не можете голосовать в опросах
    Вы не можете прикреплять файлы к сообщениям
    Вы можете скачивать файлы
    Разочарование / Disenchantment / Сезон: 4 / Серии: 1-10 из 10 [2022, фэнтези, комедия, приключения, WEB-DL 1080p] Дубляж [Пифагор / Netflix] смотреть онлайн, скачать торрент picoco.icu