Доктор Стрэндж

Лицензия

Добыча

Дубляж

Дом дракона

1 сезон

Тор

Дубляж

В эфире

Дубляж

Там, где раки поют

MVO

Властелин колец

1 сезон

GLOBAL

pack

Рекомендуем

30

Пиратка

ВАЖНО

ВАЖНО

Ghostwire

Пиратка

jed

RePack

nioh2

RePack

RDR2

RePack

NEED FOR SPEED™ PAYBACK

RePack

скачать торрент

Кинопоиск HD

Острые козырьки 6 сезон

6 сезон

FAR CRY 6

RePack

скачать торрент

Лицензия

скачать торрент

MVO

1

1 сезон

скачать торрент

1 сезон

скачать торрент

Лицензия

  

Джиперс Криперс / Jeepers Creepers (Виктор Сальва) [2001 г., ужасы, триллер, драма, детектив, Blu-Ray Remux 1080p] Дубляж, 3xMVO, 6xAVO

Джиперс Криперс через торрент pb.wtf

Размер: 38.08 GB | Добавлен: 9 мес. назад | Торрент скачан:4 раза
Смотреть онлайн | Скачать   

12-02-2022 15:34 Джиперс Криперс Скачать торрент  

Джиперс Криперс / Jeepers Creepers Год выпуска: 2001
Страна: Германия, США
Жанр: Ужасы, триллер, драма, детектив
Продолжительность: 01:30:41
Перевод: Дублированный, профессиональный многоголосый, авторский одноголосый
Субтитры: Русские, английские

Режиссер: Виктор Сальва

rating

В ролях: Джина Филипс, Джастин Лонг, Джонатан Брек, Патриция Белчер, Айлин Бреннан, Брэндон Смит, Пегги Шеффилд, Джеффри Уильям Эванс, Патрик Черри

Описание: Сделав ужасное открытие в подвале старой заброшенной церкви, Триш и её брат Дэрри едут домой. Но обычное ежедневное путешествие на машине оборачивается ужасающей гонкой, приз в которой — их жизни. Тинейджеров преследует неуничтожимая сила, охотящаяся на них с азартом хитрого хищника, обнаруживая в названии старой песенки «Jeepers Creepers» бездны нового смысла самого ужасного свойства.
Качество: Blu-Ray Remux 1080p
Формат: BDAV
Видео: MPEG-4 AVC, 35000 Kбит/с, 1920x1080, 23.976 кадр/с
Аудио#1: Русский, AC3, 6 ch, 448 Кбит/сек - Дубляж, R5
Аудио#2: Русский, AC3, 2 ch, 192 Кбит/сек - Многоголосый закадровый, ОРТ
Аудио#3: Русский, AC3, 2 ch, 192 Кбит/сек - Многоголосый закадровый, СТС
Аудио#4: Русский, DTS-HD MA 5.1, ~3866 Кбит/сек - Одноголосый закадровый, А.Гаврилов
Аудио#5: Русский, DTS-HD MA 5.1, ~3872 Кбит/сек - Одноголосый закадровый, Ю.Живов
Аудио#6: Русский, DTS-HD MA 5.1, ~3862 Кбит/сек - Одноголосый закадровый, М.Чадов
Аудио#7: Русский, DTS-HD MA 5.1, ~3855 Кбит/сек - Одноголосый закадровый, И.Швецов
Аудио#8: Русский, AC3, 2 ch, 192 Кбит/сек - Одноголосый закадровый, С.Визгунов
Аудио#9: Русский, AC3, 2 ch, 192 Кбит/сек - Одноголосый закадровый, А.Дольский
Аудио#10: Украинский, AC3, 2 ch, 192 Кбит/сек - Многоголосый закадровый, К1
Аудио#11: Английский, DTS-HD MA 5.1, ~3855 Кбит/сек
Аудио#12: Английский, AC3, 2 ch, 192 Кбит/сек - Commentary with Writer/Director Victor Salva And StarsJustin Long And Gina Philips
Аудио#13: Английский, AC3, 2 ch, 192 Кбит/сек - Commentary by Writer/Director Victor Salva
Видео
Идентификатор : 4113 (0x1011)
Идентификатор меню : 1 (0x1)
Формат : AVC
Формат/Информация : Advanced Video Codec
Профиль формата : [email protected]
Настройки формата : CABAC / 4 Ref Frames
Параметр CABAC формата : Да
Параметр RefFrames формата : 4 кадра
Идентификатор кодека : 27
Продолжительность : 1 ч. 30 м.
Вид битрейта : Постоянный
Номинальный битрейт : 35,0 Мбит/сек
Ширина : 1920 пикселей
Высота : 1080 пикселей
Соотношение сторон : 16:9
Частота кадров : 23,976 (24000/1001) кадра/сек
Цветовое пространство : YUV
Субдискретизация насыщенности : 4:2:0
Битовая глубина : 8 бит
Тип развёртки : Прогрессивная
Бит/(Пиксели*Кадры) : 0.704

Аудио #1
Идентификатор : 4352 (0x1100)
Идентификатор меню : 1 (0x1)
Формат : AC-3
Формат/Информация : Audio Coding 3
Коммерческое название : Dolby Digital
Идентификатор кодека : 129
Продолжительность : 1 ч. 30 м.
Вид битрейта : Постоянный
Битрейт : 448 Кбит/сек
Каналы : 6 каналов
ChannelLayout : L R C LFE Ls Rs
Частота : 48,0 КГц
Частота кадров : 31,250 кадров/сек (1536 SPF)
Метод сжатия : С потерями
Размер потока : 291 Мбайт (1%)
Язык : Russian
ServiceKind/String : Complete Main

Аудио #2
Идентификатор : 4353 (0x1101)
Идентификатор меню : 1 (0x1)
Формат : AC-3
Формат/Информация : Audio Coding 3
Коммерческое название : Dolby Digital
Идентификатор кодека : 129
Продолжительность : 1 ч. 30 м.
Вид битрейта : Постоянный
Битрейт : 192 Кбит/сек
Каналы : 2 канала
ChannelLayout : L R
Частота : 48,0 КГц
Частота кадров : 31,250 кадров/сек (1536 SPF)
Метод сжатия : С потерями
Размер потока : 125 Мбайт (0%)
Язык : Russian
ServiceKind/String : Complete Main

Аудио #3
Идентификатор : 4354 (0x1102)
Идентификатор меню : 1 (0x1)
Формат : AC-3
Формат/Информация : Audio Coding 3
Коммерческое название : Dolby Digital
Идентификатор кодека : 129
Продолжительность : 1 ч. 30 м.
Вид битрейта : Постоянный
Битрейт : 192 Кбит/сек
Каналы : 2 канала
ChannelLayout : L R
Частота : 48,0 КГц
Частота кадров : 31,250 кадров/сек (1536 SPF)
Метод сжатия : С потерями
Размер потока : 125 Мбайт (0%)
Язык : Russian
ServiceKind/String : Complete Main

Аудио #4
Идентификатор : 4355 (0x1103)
Идентификатор меню : 1 (0x1)
Формат : DTS XLL
Формат/Информация : Digital Theater Systems
Коммерческое название : DTS-HD Master Audio
Режим смешивания : Stream extension
Идентификатор кодека : 134
Продолжительность : 1 ч. 30 м.
Вид битрейта : Переменный
Каналы : 6 каналов
ChannelLayout : C L R Ls Rs LFE
Частота : 48,0 КГц
Частота кадров : 93,750 кадра/сек (512 SPF)
Битовая глубина : 24 бит
Метод сжатия : Без потерь
Язык : Russian

Аудио #5
Идентификатор : 4356 (0x1104)
Идентификатор меню : 1 (0x1)
Формат : DTS XLL
Формат/Информация : Digital Theater Systems
Коммерческое название : DTS-HD Master Audio
Режим смешивания : Stream extension
Идентификатор кодека : 134
Продолжительность : 1 ч. 30 м.
Вид битрейта : Переменный
Каналы : 6 каналов
ChannelLayout : C L R Ls Rs LFE
Частота : 48,0 КГц
Частота кадров : 93,750 кадра/сек (512 SPF)
Битовая глубина : 24 бит
Метод сжатия : Без потерь
Язык : Russian

Аудио #6
Идентификатор : 4357 (0x1105)
Идентификатор меню : 1 (0x1)
Формат : DTS XLL
Формат/Информация : Digital Theater Systems
Коммерческое название : DTS-HD Master Audio
Режим смешивания : Stream extension
Идентификатор кодека : 134
Продолжительность : 1 ч. 30 м.
Вид битрейта : Переменный
Каналы : 6 каналов
ChannelLayout : C L R Ls Rs LFE
Частота : 48,0 КГц
Частота кадров : 93,750 кадра/сек (512 SPF)
Битовая глубина : 24 бит
Метод сжатия : Без потерь
Язык : Russian

Аудио #7
Идентификатор : 4358 (0x1106)
Идентификатор меню : 1 (0x1)
Формат : DTS XLL
Формат/Информация : Digital Theater Systems
Коммерческое название : DTS-HD Master Audio
Режим смешивания : Stream extension
Идентификатор кодека : 134
Продолжительность : 1 ч. 30 м.
Вид битрейта : Переменный
Каналы : 6 каналов
ChannelLayout : C L R Ls Rs LFE
Частота : 48,0 КГц
Частота кадров : 93,750 кадра/сек (512 SPF)
Битовая глубина : 24 бит
Метод сжатия : Без потерь
Язык : Russian

Аудио #8
Идентификатор : 4359 (0x1107)
Идентификатор меню : 1 (0x1)
Формат : AC-3
Формат/Информация : Audio Coding 3
Коммерческое название : Dolby Digital
Идентификатор кодека : 129
Продолжительность : 1 ч. 30 м.
Вид битрейта : Постоянный
Битрейт : 192 Кбит/сек
Каналы : 2 канала
ChannelLayout : L R
Частота : 48,0 КГц
Частота кадров : 31,250 кадров/сек (1536 SPF)
Метод сжатия : С потерями
Размер потока : 125 Мбайт (0%)
Язык : Russian
ServiceKind/String : Complete Main

Аудио #9
Идентификатор : 4360 (0x1108)
Идентификатор меню : 1 (0x1)
Формат : AC-3
Формат/Информация : Audio Coding 3
Коммерческое название : Dolby Digital
Идентификатор кодека : 129
Продолжительность : 1 ч. 30 м.
Вид битрейта : Постоянный
Битрейт : 192 Кбит/сек
Каналы : 2 канала
ChannelLayout : L R
Частота : 48,0 КГц
Частота кадров : 31,250 кадров/сек (1536 SPF)
Метод сжатия : С потерями
Размер потока : 125 Мбайт (0%)
Язык : Russian
ServiceKind/String : Complete Main

Аудио #10
Идентификатор : 4361 (0x1109)
Идентификатор меню : 1 (0x1)
Формат : AC-3
Формат/Информация : Audio Coding 3
Коммерческое название : Dolby Digital
Идентификатор кодека : 129
Продолжительность : 1 ч. 30 м.
Вид битрейта : Постоянный
Битрейт : 192 Кбит/сек
Каналы : 2 канала
ChannelLayout : L R
Частота : 48,0 КГц
Частота кадров : 31,250 кадров/сек (1536 SPF)
Метод сжатия : С потерями
Размер потока : 125 Мбайт (0%)
Язык : Ukrainian
ServiceKind/String : Complete Main

Аудио #11
Идентификатор : 4362 (0x110A)
Идентификатор меню : 1 (0x1)
Формат : DTS XLL
Формат/Информация : Digital Theater Systems
Коммерческое название : DTS-HD Master Audio
Режим смешивания : Stream extension
Идентификатор кодека : 134
Продолжительность : 1 ч. 30 м.
Вид битрейта : Переменный
Каналы : 6 каналов
ChannelLayout : C L R Ls Rs LFE
Частота : 48,0 КГц
Частота кадров : 93,750 кадра/сек (512 SPF)
Битовая глубина : 24 бит
Метод сжатия : Без потерь
Язык : English

Аудио #12
Идентификатор : 4363 (0x110B)
Идентификатор меню : 1 (0x1)
Формат : AC-3
Формат/Информация : Audio Coding 3
Коммерческое название : Dolby Digital
Идентификатор кодека : 129
Продолжительность : 1 ч. 30 м.
Вид битрейта : Постоянный
Битрейт : 192 Кбит/сек
Каналы : 2 канала
ChannelLayout : L R
Частота : 48,0 КГц
Частота кадров : 31,250 кадров/сек (1536 SPF)
Метод сжатия : С потерями
Размер потока : 125 Мбайт (0%)
Язык : English
ServiceKind/String : Complete Main

Аудио #13
Идентификатор : 4364 (0x110C)
Идентификатор меню : 1 (0x1)
Формат : AC-3
Формат/Информация : Audio Coding 3
Коммерческое название : Dolby Digital
Идентификатор кодека : 129
Продолжительность : 1 ч. 30 м.
Вид битрейта : Постоянный
Битрейт : 192 Кбит/сек
Каналы : 2 канала
ChannelLayout : L R
Частота : 48,0 КГц
Частота кадров : 31,250 кадров/сек (1536 SPF)
Метод сжатия : С потерями
Размер потока : 125 Мбайт (0%)
Язык : English
ServiceKind/String : Complete Main

Текст #1
Идентификатор : 4608 (0x1200)
Идентификатор меню : 1 (0x1)
Формат : PGS
Идентификатор кодека : 144
Язык : Russian

Текст #2
Идентификатор : 4609 (0x1201)
Идентификатор меню : 1 (0x1)
Формат : PGS
Идентификатор кодека : 144
Язык : English




Скачать Джиперс Криперс через торрент https://b.radikal.ru/b19/2202/d4/7646ad62bd7f.gif Скачать, смотреть онлайн Джиперс Криперс бесплантно в хорошем качестве Описание: Сделав ужасное открытие в подвале старой заброшенной церкви, Триш и её брат Дэрри едут домой. Но обычное ежедневное путешествие ... 5 10 1
Info! Золотая раздача, скачанное не засчитывается.
Торрент: Зарегистрирован [2022-02-12 15:34] · скачан: 4 раз
Статус: √ проверено
Размер: 38.08 GB
Как cкачать? Как скачать Джиперс Криперс через торрент | UTorrent

28-11-2019 20:33  


Отключить вcю реклaмy на сайте, в т.ч. и в плеере онлайн просмотра!

    Дорогой пользователь! Огромная просьба, поблагодарите релизера, оцените раздачу и оставьте свои комментарий, если Вы скачали Джиперс Криперс через торрент бесплатно!!
    Комментировать посты могут только пользователи прошедшие не сложную регистрацию
    Показать сообщения:    


    Джиперс Криперс через торрент
    Скачать бесплатно Джиперс Криперс
    Джиперс Криперс скачать торрент
    Джиперс Криперс смотреть онлайн
    Cкачать фильм Джиперс Криперс бесплатно
    Джиперс Криперс скачать торрент в хорошем качестве
    Джиперс Криперс смотреть онлайн бесплатно в хорошем качестве
    Вы не можете начинать темы
    Вы не можете отвечать на сообщения
    Вы не можете редактировать свои сообщения
    Вы не можете удалять свои сообщения
    Вы не можете голосовать в опросах
    Вы не можете прикреплять файлы к сообщениям
    Вы можете скачивать файлы
    Джиперс Криперс / Jeepers Creepers [2001 г., ужасы, триллер, драма, детектив, Blu-Ray Remux 1080p] Дубляж, 3xMVO, 6xAVO смотреть онлайн, скачать торрент picoco.icu