Достать ножи: Стеклянная луковица

MVO

Добыча

Дубляж

Уэнсдэй

1 сезон

Тор

Дубляж

13 клиническая

1 сезон

Жестокая ночь

MVO

Одни из нас

1 сезон

Deluxe

pack

Рекомендуем

30

Пиратка

ВАЖНО

ВАЖНО

Ghostwire

Пиратка

jed

RePack

nioh2

RePack

RDR2

RePack

NEED FOR SPEED™ PAYBACK

RePack

скачать торрент

Кинопоиск HD

Острые козырьки 6 сезон

6 сезон

FAR CRY 6

RePack

скачать торрент

Лицензия

скачать торрент

MVO

1

1 сезон

скачать торрент

1 сезон

скачать торрент

Лицензия

  

Мой волк / Mystère / Vicky and Her Mystery (Дени Имбер) [2021, Семейный, приключения, WEB-DL 1080p] Дубляж [iTunes]

Мой волк через торрент pb.wtf

Размер: 3.09 GB | Добавлен: 11 мес. назад | Торрент скачан:301 раз
Смотреть онлайн | Скачать | Поддержите нас   

12-02-2022 16:33 Мой волк Скачать торрент  

Мой волк
Mystère | Vicky and Her Mystery

Год выпуска: 2021
Страна: Франция
Студия: Angoa-Agicoa, Auvergne Rhône-Alpes Cinéma, Centre National de la Cinématographie (CNC), Ciné, Conseil Départemental Du Cantal, Entourage Pictures, Gaumont, OCS, Région Auvergne-Rhône-Alpes, Radar Films, Solar Entertainment
Жанр: Семейный, приключения
Продолжительность: 01:23:24
Перевод: Дублированный | iTunes
Субтитры: Французские

Режиссер: Дени Имбер

rating

В ролях: Венсан Эльбаз, Шанна Кейль, Мари Жиллен, Эрик Элмоснино, Чеки Карио, Эрик Савен, Ромен Ланкри, Венсан Деньяр, Эцио Саттер

Описание: Восьмилетняя Виктория переезжает с отцом из города в горы. Однажды на прогулке они знакомятся с пастухом, и он дарит девочке щенка по кличке Секрет, который становится ей лучшим другом. Лишь позже семья понимает, что из этого ласкового комочка шерсти вырастет опасный хищник. Но дружба не знает границ.

Качество: WEB-DL 1080p
Формат: MKV

Видео: MPEG-4 AVC, 4235 Кбит/с, 1920x1080, 24 fps
Аудио#1: Русский (AC3, 6 ch, 384 Кбит/с)
Аудио#2: французский (Е-AC3, 6 ch, 640 Кбит/с)
скриншот  скриншот  скриншот  скриншот  

Complete name : Moy.volk.2021.WEB-DL.1080p.ELEKTRI4KA.UNIONGANG.mkv
Format : Matroska
Format version : Version 4
File size : 3.09 GiB
Duration : 1 h 24 min
Overall bit rate mode : Variable
Overall bit rate : 5 258 kb/s
Movie name : Moy.volk.2021.WEB-DL.1080p.ELEKTRI4KA.UNIONGANG.
Encoded date : UTC 2022-02-12 13:38:29
Writing application : mkvmerge v8.3.0 ('Over the Horizon') 32bit
Writing library : libebml v1.3.1 + libmatroska v1.4.2

Video
ID : 1
Format : AVC
Format/Info : Advanced Video Codec
Format profile : [email protected]
Format settings : CABAC / 3 Ref Frames
Format settings, CABAC : Yes
Format settings, Reference frames : 3 frames
Codec ID : V_MPEG4/ISO/AVC
Duration : 1 h 24 min
Bit rate mode : Variable
Bit rate : 4 235 kb/s
Nominal bit rate : 6 171 kb/s
Maximum bit rate : 9 285 kb/s
Width : 1 920 pixels
Height : 1 080 pixels
Display aspect ratio : 16:9
Frame rate mode : Constant
Frame rate : 24.000 FPS
Color space : YUV
Chroma subsampling : 4:2:0
Bit depth : 8 bits
Scan type : Progressive
Bits/(Pixel*Frame) : 0.085
Stream size : 2.49 GiB (81%)
Writing library : x264 core 148 r2727 7d026e8
Encoding settings : cabac=1 / ref=3 / deblock=1:0:0 / analyse=0x1:0x111 / me=umh / subme=10 / psy=1 / psy_rd=1.00:0.00 / mixed_ref=1 / me_range=24 / chroma_me=1 / trellis=2 / 8x8dct=0 / cqm=0 / deadzone=21,11 / fast_pskip=1 / chroma_qp_offset=-2 / threads=8 / lookahead_threads=1 / sliced_threads=0 / nr=0 / decimate=1 / interlaced=0 / bluray_compat=0 / stitchable=1 / constrained_intra=0 / bframes=2 / b_pyramid=0 / b_adapt=2 / b_bias=0 / direct=3 / weightb=1 / open_gop=0 / weightp=2 / keyint=250 / keyint_min=24 / scenecut=0 / intra_refresh=0 / rc_lookahead=48 / rc=2pass / mbtree=1 / bitrate=6171 / ratetol=1.0 / qcomp=0.50 / qpmin=6 / qpmax=51 / qpstep=4 / cplxblur=20.0 / qblur=0.5 / vbv_maxrate=9285 / vbv_bufsize=12380 / nal_hrd=vbr / filler=0 / ip_ratio=1.40 / aq=1:1.00
Default : Yes
Forced : No

Audio #1
ID : 2
Format : AC-3
Format/Info : Audio Coding 3
Commercial name : Dolby Digital
Codec ID : A_AC3
Duration : 1 h 23 min
Bit rate mode : Constant
Bit rate : 384 kb/s
Channel(s) : 6 channels
Channel layout : L R C LFE Ls Rs
Sampling rate : 48.0 kHz
Frame rate : 31.250 FPS (1536 SPF)
Compression mode : Lossy
Stream size : 229 MiB (7%)
Title : Дубляж (iTunes)
Language : Russian
Service kind : Complete Main
Default : Yes
Forced : Yes

Audio #2
ID : 3
Format : E-AC-3
Format/Info : Enhanced AC-3
Commercial name : Dolby Digital Plus
Codec ID : A_EAC3
Duration : 1 h 24 min
Bit rate mode : Constant
Bit rate : 640 kb/s
Channel(s) : 6 channels
Channel layout : L R C LFE Ls Rs
Sampling rate : 48.0 kHz
Frame rate : 31.250 FPS (1536 SPF)
Compression mode : Lossy
Stream size : 385 MiB (12%)
Title : Original
Language : French
Service kind : Complete Main
Default : No
Forced : No

Text
ID : 4
Format : UTF-8
Codec ID : S_TEXT/UTF8
Codec ID/Info : UTF-8 Plain Text
Duration : 1 h 19 min
Bit rate : 46 b/s
Count of elements : 1067
Stream size : 27.3 KiB (0%)
Title : French [CC]
Language : French
Default : No
Forced : No

Menu
00:00:00.000 : en:Глава 1
00:04:40.125 : en:Глава 2
00:10:15.750 : en:Глава 3
00:20:28.666 : en:Глава 4
00:28:07.541 : en:Глава 5
00:33:48.041 : en:Глава 6
00:38:11.832 : en:Глава 7
00:45:19.915 : en:Глава 8
00:52:19.165 : en:Глава 9
00:58:35.581 : en:Глава 10
01:05:14.997 : en:Глава 11
01:11:08.580 : en:Глава 12
01:13:29.871 : en:Глава 13




Скачать Мой волк через торрент https://i116.fastpic.org/big/2022/0212/23/0cab8fddd0b0cdfa11a468071eba9c23.jpg Скачать, смотреть онлайн Мой волк бесплантно в хорошем качестве Описание: Восьмилетняя Виктория переезжает с отцом из города в горы. Однажды на прогулке они знакомятся с пастухом, и он дарит девочке ... 10 10 7
Торрент: Зарегистрирован [2022-02-12 16:33] · скачан: 301 раз
Статус: √ проверено
Размер: 3.09 GB
Как cкачать? Как скачать Мой волк через торрент | UTorrent

% Раздел Тема Автор DL S | L
Фильмы 2021 [DVDrip, WEB-DLRip, HDrip] (DUB, MVO) [ 1.91 GB ] Мой волк / Mystère / Vicky and Her Mystery | DUB | BDRip-AVC Lithuania Скачать
1 | 0
Фильмы 2021 [DVDrip, WEB-DLRip, HDrip] (DUB, MVO) [ 746 MB ] Мой волк / Mystère / Vicky and Her Mystery | DUB | BDRip bober100 Скачать
1 | 0
Фильмы [HD 720p, 1080p] (Хороший звук DUB, MVO) [ 4.13 GB ] Мой волк / Mystère / Vicky and Her Mystery | DUB | 720p bober100 Скачать
1 | 0
Фильмы (Blu-ray, BD-Remux, HDDVD) [ 23.24 GB ] Мой волк / Mystère / Vicky and Her Mystery | DUB | BD Remux 1080p bober100 Скачать
1 | 0
Фильмы [HD 720p, 1080p] (Хороший звук DUB, MVO) [ 7.71 GB ] Мой волк / Mystère / Vicky and Her Mystery | DUB | 1080p bober100 Скачать
1 | 0
Фильмы 2021 [DVDrip, WEB-DLRip, HDrip] (DUB, MVO) [ 1.34 GB ] Мой волк / Mystère / Vicky and Her Mystery | iTunes | DLRip-AVC bober100 Скачать
1 | 0
Фильмы 2021 [DVDrip, WEB-DLRip, HDrip] (DUB, MVO) [ 1.46 GB ] Мой волк / Mystère / Vicky and Her Mystery | DUB | BDRip bober100 Скачать
1 | 0

28-11-2019 20:33  


Отключить вcю реклaмy на сайте, в т.ч. и в плеере онлайн просмотра!

    Дорогой пользователь! Огромная просьба, поблагодарите релизера, оцените раздачу и оставьте свои комментарий, если Вы скачали Мой волк через торрент бесплатно!!
    Комментировать посты могут только пользователи прошедшие не сложную регистрацию
    Показать сообщения:    


    Мой волк через торрент
    Скачать бесплатно Мой волк
    Мой волк скачать торрент
    Мой волк смотреть онлайн
    Cкачать фильм Мой волк бесплатно
    Мой волк скачать торрент в хорошем качестве
    Мой волк смотреть онлайн бесплатно в хорошем качестве
    Вы не можете начинать темы
    Вы не можете отвечать на сообщения
    Вы не можете редактировать свои сообщения
    Вы не можете удалять свои сообщения
    Вы не можете голосовать в опросах
    Вы не можете прикреплять файлы к сообщениям
    Вы можете скачивать файлы
    Мой волк / Mystère / Vicky and Her Mystery [2021, Семейный, приключения, WEB-DL 1080p] Дубляж [iTunes] смотреть онлайн, скачать торрент picoco.icu