Всегда рабочее зеркало без VPN и Proxy просто перед .vidak.icu напиши любое слово или цифру, Пример http://n7ad.vidak.icu

MVO

2 сезон

2 сезон

1

1 сезон

iTunes

2 сезон

13

1 сезон

Распродажа

pack

Рекомендуем

Пиратка

30

ВАЖНО

RePack

MK11

RePack

jed

RePack

fifa19

RePack

RDR2

RePack

NEED FOR SPEED™ PAYBACK

Кинопоиск HD

6 сезон

 Острые козырьки 6 сезон

Все сериалы

все сериалы на PB.wtf

RePack

FAR CRY 5

Anonymous, нам критически не хватает 5601 руб. на оплату серверов и переферии за Апрель, помоги нам пожалуйста, вся надежда только на тебя. В благодарность мы отключим тебе всю рекламу на сайте!

×
  
Magnet ссылка

Фальшивомонетчик / Flag Day (Шон Пенн) [2021, драма, криминал, BDRip-AVC] MVO [Кинопоиск HD] от ExKinoRay pb.wtf

Фальшивомонетчик через торрент pb.wtf

Размер: 2.48 GB | Добавлен: 3 мес. 5 д. назад | Торрент скачан:46 раз
Смотреть онлайн Фальшивомонетчик | Скачать    Ребята, помогите собрать деньги на оплату серверов!!!

15-02-2022 08:13 Фальшивомонетчик Скачать торрент  


Фальшивомонетчик / Flag Day
Информация о фильме:
Название: Фальшивомонетчик
Оригинальное название: Flag Day
Год выхода: 2021
Жанр: драма, криминал
Режиссер: Шон Пенн

В ролях: Дилан Пенн, Шон Пенн, Джош Бролин, Кэтрин Уинник, Хоппер Пенн, Реджина Кинг, Норберт Лео Батц, Дейл Дикки, Эдди Марсан, Бэйли Ноубл

Описание: Ради благополучия дочери заботливый и нежный отец Джон Фогель начал грабить банки. Но став крупнейшим мошенником и вторым по масштабу фальшивомонетчиком в истории Америки, он поставил под угрозу жизнь любимой Джен.



Страна: США
Студия: Conqueror Productions, Ingenious Media, Olive Hill Media
Продолжительность: 01:49:21
Перевод: Профессиональный (многоголосый, закадровый) - КиноПоиск HD



Информация о файле:
Кодек: AVC
Формат: MKV
Качество: BDRip-AVC | Falshivomonetchik.2021.BDREMUX.1080p.
Видео: MPEG-4 AVC, 1024x552, 23.976 fps, 2350 kb/s
Аудио RU: AC3, 6 ch, 48 kHz, 448 kbps
Аудио EN: AC3, 6 ch, 48 kHz, 448 kbps
Субтитры: Английские

x264 info: frame I:875 Avg QP:16.55 size: 62982
x264 info: frame P:37154 Avg QP:19.89 size: 20913
x264 info: frame B:119276 Avg QP:21.60 size: 9179
x264 info: consecutive B-frames: 4.4% 4.1% 7.8% 17.4% 10.6% 39.2% 10.3% 3.3% 1.2% 0.8% 1.0%
General
Unique ID : 172800624770683892583047874308430298742 (0x820030947840308D7811642E5116FE76)
Complete name : D:uTorrentРипы wolf1245Flag Day.2021.MVO.KHD.BDRip-AVC..[wolf1245.ExKinoRay].mkv
Format : Matroska
Format version : Version 4
File size : 2.48 GiB
Duration : 1 h 49 min
Overall bit rate : 3 248 kb/s
Movie name : Flag Day.2021.MVO.KHD.BDRip-AVC..[wolf1245.ExKinoRay]
Encoded date : UTC 2022-02-15 07:56:08
Writing application : mkvmerge v65.0.0 ('Too Much') 64-bit
Writing library : libebml v1.4.2 + libmatroska v1.6.4
Video
ID : 1
Format : AVC
Format/Info : Advanced Video Codec
Format profile : High@L4.1
Format settings : CABAC / 12 Ref Frames
Format settings, CABAC : Yes
Format settings, Reference frames : 12 frames
Codec ID : V_MPEG4/ISO/AVC
Duration : 1 h 49 min
Bit rate : 2 350 kb/s
Width : 1 024 pixels
Height : 552 pixels
Display aspect ratio : 1.85:1
Frame rate mode : Constant
Frame rate : 23.976 (24000/1001) FPS
Color space : YUV
Chroma subsampling : 4:2:0
Bit depth : 8 bits
Scan type : Progressive
Bits/(Pixel*Frame) : 0.173
Stream size : 1.79 GiB (72%)
Title : -=[wolf1245.ExKinoRay]=-
Writing library : x264 core 163 r3060 5db6aa6
Encoding settings : cabac=1 / ref=12 / deblock=1:-3:-3 / analyse=0x3:0x133 / me=umh / subme=10 / psy=1 / psy_rd=1.02:0.10 / mixed_ref=1 / me_range=32 / chroma_me=1 / trellis=2 / 8x8dct=1 / cqm=0 / deadzone=21,11 / fast_pskip=1 / chroma_qp_offset=-3 / threads=10 / lookahead_threads=2 / sliced_threads=0 / nr=0 / decimate=0 / interlaced=0 / bluray_compat=0 / constrained_intra=0 / bframes=10 / b_pyramid=2 / b_adapt=2 / b_bias=0 / direct=3 / weightb=1 / open_gop=0 / weightp=2 / keyint=240 / keyint_min=24 / scenecut=40 / intra_refresh=0 / rc_lookahead=60 / rc=2pass / mbtree=0 / bitrate=2350 / ratetol=1.0 / qcomp=0.60 / qpmin=0 / qpmax=69 / qpstep=4 / cplxblur=20.0 / qblur=0.5 / vbv_maxrate=50000 / vbv_bufsize=62500 / nal_hrd=none / filler=0 / ip_ratio=1.40 / pb_ratio=1.30 / aq=1:1.00
Language : English
Default : Yes
Forced : No
Audio #1
ID : 2
Format : AC-3
Format/Info : Audio Coding 3
Commercial name : Dolby Digital
Codec ID : A_AC3
Duration : 1 h 49 min
Bit rate mode : Constant
Bit rate : 448 kb/s
Channel(s) : 6 channels
Channel layout : L R C LFE Ls Rs
Sampling rate : 48.0 kHz
Frame rate : 31.250 FPS (1536 SPF)
Compression mode : Lossy
Stream size : 350 MiB (14%)
Title : MVO | KinoPoisk HD | RUS
Language : Russian
Service kind : Complete Main
Default : Yes
Forced : Yes
Audio #2
ID : 3
Format : AC-3
Format/Info : Audio Coding 3
Commercial name : Dolby Digital
Codec ID : A_AC3
Duration : 1 h 49 min
Bit rate mode : Constant
Bit rate : 448 kb/s
Channel(s) : 6 channels
Channel layout : L R C LFE Ls Rs
Sampling rate : 48.0 kHz
Frame rate : 31.250 FPS (1536 SPF)
Compression mode : Lossy
Stream size : 350 MiB (14%)
Title : Original | ENG
Language : English
Service kind : Complete Main
Default : Yes
Forced : No
Text
ID : 4
Format : UTF-8
Codec ID : S_TEXT/UTF8
Codec ID/Info : UTF-8 Plain Text
Duration : 1 h 48 min
Bit rate : 67 b/s
Count of elements : 1594
Stream size : 53.5 KiB (0%)
Language : English
Default : No
Forced : No
Menu
00:00:00.000 : :Chapter 01
00:10:01.434 : :Chapter 02
00:20:00.866 : :Chapter 03
00:30:02.009 : :Chapter 04
00:40:02.734 : :Chapter 05
00:49:49.904 : :Chapter 06
01:00:01.223 : :Chapter 07
01:10:04.367 : :Chapter 08
01:20:06.719 : :Chapter 09
01:30:03.940 : :Chapter 10
01:40:06.042 : :Chapter 11
01:43:28.077 : :Chapter 12
Релиз от:
Автор релиза:
pb.wtf



Скачать Фальшивомонетчик через торрент https://i116.fastpic.org/big/2022/0215/17/767db2b29e2397f4aa9e8b0422d13017.png Скачать, смотреть онлайн Фальшивомонетчик бесплантно в хорошем качестве Описание: Ради благополучия дочери заботливый и нежный отец Джон Фогель начал грабить банки. Но став крупнейшим мошенником и вторым по ... 10 10 3
Торрент: Зарегистрирован [2022-02-15 08:13] · скачан: 46 раз
Статус: √ проверено
Размер: 2.48 GB
Как cкачать? Как скачать Фальшивомонетчик через торрент | UTorrent

28-11-2019 20:33  

Отключить всю рекламу на сайте

    Дорогой пользователь! Огромная просьба, поблагодарите релизера, оцените раздачу и оставьте свои комментарий, если Вы скачали Фальшивомонетчик через торрент бесплатно!
    Комментировать посты могут только пользователи прошедшие не сложную регистрацию
    Показать сообщения:    

    Фальшивомонетчик через торрент
    Скачать бесплатно Фальшивомонетчик
    Фальшивомонетчик скачать торрент
    Фальшивомонетчик смотреть онлайн
    Cкачать фильм Фальшивомонетчик бесплатно
    Фальшивомонетчик скачать торрент в хорошем качестве
    Фальшивомонетчик смотреть онлайн бесплатно в хорошем качестве


    Вы не можете начинать темы
    Вы не можете отвечать на сообщения
    Вы не можете редактировать свои сообщения
    Вы не можете удалять свои сообщения
    Вы не можете голосовать в опросах
    Вы не можете прикреплять файлы к сообщениям
    Вы можете скачивать файлы