Всегда рабочее зеркало без VPN и Proxy просто перед .vidak.icu напиши любое слово или цифру, Пример http://folb.vidak.icu

MVO

2 сезон

2 сезон

1

1 сезон

iTunes

2 сезон

13

1 сезон

Deluxe

pack

Рекомендуем

Пиратка

30

ВАЖНО

RePack

MK11

RePack

jed

RePack

fifa19

RePack

RDR2

RePack

NEED FOR SPEED™ PAYBACK

Кинопоиск HD

6 сезон

 Острые козырьки 6 сезон

Все сериалы

все сериалы на PB.wtf

RePack

FAR CRY 5

Anonymous, нам критически не хватает 5601 руб. на оплату серверов и переферии за Апрель, помоги нам пожалуйста, вся надежда только на тебя. В благодарность мы отключим тебе всю рекламу на сайте!

×
  
Magnet ссылка

Эйфель / Eiffel (Мартин Бурбулон) [2021, Драма, мелодрама, биография, история, BDRip-AVC] DUB [iTunes] от ExKinoRay pb.wtf

Эйфель через торрент pb.wtf

Размер: 2.17 GB | Добавлен: 3 мес. 3 д. назад | Торрент скачан:63 раза
Смотреть онлайн Эйфель | Скачать    Ребята, помогите собрать деньги на оплату серверов!!!

15-02-2022 17:10 Эйфель Скачать торрент  


Эйфель / Eiffel
Информация о фильме:
Название: Эйфель
Оригинальное название: Eiffel
Год выхода: 2021
Жанр: Драма, мелодрама, биография, история
Режиссер: Мартин Бурбулон

В ролях: Ромен Дюрис, Эмма Маккей, Пьер Деладоншам, Арман Буланжер, Бруно Раффаэлли, Александр Стайгер, Андраник Мане, Филипп Эриссон, Стефан Буше, Жереми Лопез

Описание: Париж, конец XIX века. Талантливый инженер Гюстав Эйфель мечтает строить метро, подземную железную дорогу будущего. Однако встреча с таинственной женщиной из его прошлого буквально переворачивает мир Эйфеля. Их головокружительный роман вдохновляет его на создание немыслимого архитектурного шедевра – гигантской ажурной башни, ставшей в итоге символом Парижа, романтики и любви.



Страна: Франция, Германия
Студия: VVZ Productions, PathéScope Pictures
Продолжительность: 01:47:42
Перевод: Профессиональный (полное дублирование) - CPI Films | iTunes



Информация о файле:
Кодек: AVC
Формат: MKV
Качество: BDRip-AVC | Eiffel.2021.1080p.BDREMUX
Видео: MPEG-4 AVC, 1024x426, 24.000 fps, 2050 kbps
Аудио RU: AC3, 6 ch, 48 kHz, 384 kbps
Аудио FRA: AC3, 6 ch, 48 kHz, 448 kbps
Субтитры: русские, французские

x264 info: frame I:1215 Avg QP:12.89 size: 66666
x264 info: frame P:34497 Avg QP:15.86 size: 22794
x264 info: frame B:119399 Avg QP:16.94 size: 6595
x264 info: consecutive B-frames: 2.7% 4.0% 8.3% 17.7% 18.2% 33.4% 7.0% 2.0% 2.0% 2.0% 2.8%
General
Unique ID : 233887704281783930235487244881967513109 (0xAFF52221EAAB6CD63B6A1170FD58FE15)
Complete name : D:uTorrentРипы wolf1245Eiffel.2021.DUB.iTunes.BDRip-AVC.[wolf1245.ExKinoRay].mkv
Format : Matroska
Format version : Version 4
File size : 2.17 GiB
Duration : 1 h 47 min
Overall bit rate : 2 890 kb/s
Movie name : Eiffel.2021.DUB.iTunes.BDRip-AVC.[wolf1245.ExKinoRay]
Encoded date : UTC 2022-02-15 16:57:27
Writing application : mkvmerge v65.0.0 ('Too Much') 64-bit
Writing library : libebml v1.4.2 + libmatroska v1.6.4
Video
ID : 1
Format : AVC
Format/Info : Advanced Video Codec
Format profile : High@L4.1
Format settings : CABAC / 12 Ref Frames
Format settings, CABAC : Yes
Format settings, Reference frames : 12 frames
Codec ID : V_MPEG4/ISO/AVC
Duration : 1 h 47 min
Bit rate : 2 050 kb/s
Width : 1 024 pixels
Height : 426 pixels
Display aspect ratio : 2.40:1
Frame rate mode : Constant
Frame rate : 24.000 FPS
Color space : YUV
Chroma subsampling : 4:2:0
Bit depth : 8 bits
Scan type : Progressive
Bits/(Pixel*Frame) : 0.196
Stream size : 1.54 GiB (71%)
Title : -=[wolf1245.ExKinoRay]=-
Writing library : x264 core 163 r3060 5db6aa6
Encoding settings : cabac=1 / ref=12 / deblock=1:-3:-3 / analyse=0x3:0x133 / me=umh / subme=10 / psy=1 / psy_rd=1.02:0.08 / mixed_ref=1 / me_range=48 / chroma_me=1 / trellis=2 / 8x8dct=1 / cqm=0 / deadzone=21,11 / fast_pskip=1 / chroma_qp_offset=-3 / threads=10 / lookahead_threads=2 / sliced_threads=0 / nr=0 / decimate=0 / interlaced=0 / bluray_compat=0 / constrained_intra=0 / bframes=10 / b_pyramid=2 / b_adapt=2 / b_bias=0 / direct=3 / weightb=1 / open_gop=0 / weightp=2 / keyint=240 / keyint_min=24 / scenecut=40 / intra_refresh=0 / rc_lookahead=60 / rc=2pass / mbtree=0 / bitrate=2050 / ratetol=1.0 / qcomp=0.60 / qpmin=0 / qpmax=69 / qpstep=4 / cplxblur=20.0 / qblur=0.5 / vbv_maxrate=50000 / vbv_bufsize=62500 / nal_hrd=none / filler=0 / ip_ratio=1.40 / pb_ratio=1.30 / aq=1:1.00
Language : French
Default : Yes
Forced : No
Color range : Limited
Color primaries : BT.709
Transfer characteristics : BT.709
Matrix coefficients : BT.709
Audio #1
ID : 2
Format : AC-3
Format/Info : Audio Coding 3
Commercial name : Dolby Digital
Codec ID : A_AC3
Duration : 1 h 47 min
Bit rate mode : Constant
Bit rate : 384 kb/s
Channel(s) : 6 channels
Channel layout : L R C LFE Ls Rs
Sampling rate : 48.0 kHz
Frame rate : 31.250 FPS (1536 SPF)
Compression mode : Lossy
Stream size : 296 MiB (13%)
Title : DUB | iTunes | RUS
Language : Russian
Service kind : Complete Main
Default : Yes
Forced : No
Audio #2
ID : 3
Format : AC-3
Format/Info : Audio Coding 3
Commercial name : Dolby Digital
Codec ID : A_AC3
Duration : 1 h 47 min
Bit rate mode : Constant
Bit rate : 448 kb/s
Channel(s) : 6 channels
Channel layout : L R C LFE Ls Rs
Sampling rate : 48.0 kHz
Frame rate : 31.250 FPS (1536 SPF)
Compression mode : Lossy
Stream size : 345 MiB (16%)
Title : Original | FRA
Language : French
Service kind : Complete Main
Default : Yes
Forced : No
Text #1
ID : 4
Format : UTF-8
Codec ID : S_TEXT/UTF8
Codec ID/Info : UTF-8 Plain Text
Duration : 1 h 42 min
Bit rate : 61 b/s
Count of elements : 1071
Stream size : 46.2 KiB (0%)
Title : [full]
Language : Russian
Default : No
Forced : No
Text #2
ID : 5
ID in the original source medium : 4608 (0x1200)
Format : PGS
Muxing mode : zlib
Codec ID : S_HDMV/PGS
Codec ID/Info : Picture based subtitle format used on BDs/HD-DVDs
Duration : 1 h 47 min
Bit rate : 20.2 kb/s
Count of elements : 2922
Stream size : 15.6 MiB (1%)
Title : Français
Language : French
Default : No
Forced : No
Original source medium : Blu-ray
Menu
00:00:00.000 : :Chapitre 01
00:09:02.125 : :Chapitre 02
00:16:36.000 : :Chapitre 03
00:26:21.000 : :Chapitre 04
00:37:42.750 : :Chapitre 05
00:48:09.875 : :Chapitre 06
00:57:16.708 : :Chapitre 07
01:09:30.541 : :Chapitre 08
01:17:07.916 : :Chapitre 09
01:27:57.166 : :Chapitre 10
01:36:27.375 : :Chapitre 11
01:43:38.291 : :Chapitre 12
Релиз от:
Автор релиза:
pb.wtf



Скачать Эйфель через торрент https://i116.fastpic.org/big/2022/0214/3c/2ec3c2e3af2f483755384a3fc864ca3c.jpg Скачать, смотреть онлайн Эйфель бесплантно в хорошем качестве Описание: Париж, конец XIX века. Талантливый инженер Гюстав Эйфель мечтает строить метро, подземную железную дорогу будущего. Однако ... 10 10 4
Торрент: Зарегистрирован [2022-02-15 17:10] · скачан: 63 раз
Статус: √ проверено
Размер: 2.17 GB
Как cкачать? Как скачать Эйфель через торрент | UTorrent

28-11-2019 20:33  

Отключить всю рекламу на сайте

    Дорогой пользователь! Огромная просьба, поблагодарите релизера, оцените раздачу и оставьте свои комментарий, если Вы скачали Эйфель через торрент бесплатно!
    Комментировать посты могут только пользователи прошедшие не сложную регистрацию
    Показать сообщения:    

    Эйфель через торрент
    Скачать бесплатно Эйфель
    Эйфель скачать торрент
    Эйфель смотреть онлайн
    Cкачать фильм Эйфель бесплатно
    Эйфель скачать торрент в хорошем качестве
    Эйфель смотреть онлайн бесплатно в хорошем качестве


    Вы не можете начинать темы
    Вы не можете отвечать на сообщения
    Вы не можете редактировать свои сообщения
    Вы не можете удалять свои сообщения
    Вы не можете голосовать в опросах
    Вы не можете прикреплять файлы к сообщениям
    Вы можете скачивать файлы