Всегда рабочее зеркало без VPN и Proxy просто перед .vidak.icu напиши любое слово или цифру, Пример http://ja8q.vidak.icu

MVO

Лицензия

1 сезон

1

1 сезон

iTunes

1 сезон

13

1 сезон

Deluxe

pack

Рекомендуем

Repack

30

ВАЖНО

RePack

MK11

RePack

jed

RePack

fifa19

RePack

RDR2

RePack

NEED FOR SPEED™ PAYBACK

Кинопоиск HD

6 сезон

 Острые козырьки 6 сезон

Все сериалы

все сериалы на PB.wtf

RePack

FAR CRY 5
  
Magnet ссылка

Кулаки возмездия / Fistful of Vengeance (Роэль Рейн) [2022, Фэнтези, боевик, драма, криминал, WEB-DL 1080p] DUB (rus, ukr) [VSI Moscow / Netflix] pb.wtf

Кулаки возмездия через торрент pb.wtf

Раздают: 2 [ 0 KB/s ]
Размер: 4.08 GB | Добавлен: 4 мес. 17 д. назад | Торрент скачан:442 раза
Смотреть онлайн Кулаки возмездия | Скачать    Ребята, помогите собрать деньги на оплату серверов!!!

17-02-2022 10:59 Кулаки возмездия Скачать торрент  

Кулаки возмездия
Fistful of Vengeance

Год выпуска: 2022
Страна: США
Студия: Flame Ventures, Living Films, Netflix, Nomadic Pictures
Жанр: Фэнтези, боевик, драма, криминал
Продолжительность: 01:36:20
Перевод: Дублированный | VSI Moscow по заказу Netflix
Субтитры: Русские (Forced, full), , украинские, английские, немецкие, испанские, финские, французские, итальянские, корейские, польские, португальские, шведские

Режиссер: Роэль Рейн

rating

В ролях: Ико Уайс, Льюис Тан, Жужу Чан, Яяин Рхатха Пхонгам, Перл Туси, Джейсон Дж. Тобин, Лоуренс Као, Катрина Грэй, Апасири Култанан, Селина Висман и др.

Описание: Кай Цзинь отправляется в Бангкок, чтобы в составе команды себе подобных убийц отомстить за смерть одного из своих. Но в процессе выясняется, что враг куда древнее и опаснее, чем казалось.

Качество: WEB-DL 1080p
Формат: MKV

Видео: 1920x1080 at 24 fps, MPEG-4 AVC, ~4015 kbps avg
Аудио 1: 48 kHz, E-AC3, 3/2 (L,C,R,l,r) + LFE ch, ~640 kbps avg | VSI Moscow
Аудио 2: 48 kHz, E-AC3, 3/2 (L,C,R,l,r) + LFE ch, ~640 kbps avg | Ukrainian
Аудио 3: 48 kHz, E-AC-3 Atmos, 3/2 (L,C,R,l,r) + LFE ch, ~768 kbps avg | English
скриншот  скриншот  скриншот  скриншот  

General
Complete name : Fistful.of.Vengeance.2022.1080p.NF.WEB-DL.DDP5.1.Atmos.x264-TEPES_Kyle.mkv
Format : Matroska
Format version : Version 4
File size : 4.08 GiB
Duration : 1 h 36 min
Overall bit rate mode : Variable
Overall bit rate : 6 066 kb/s
Encoded date : UTC 2022-02-17 09:41:09
Writing application : mkvmerge v65.0.0 ('Too Much') 64-bit
Writing library : libebml v1.4.2 + libmatroska v1.6.4

Video
ID : 1
Format : AVC
Format/Info : Advanced Video Codec
Format profile : [email protected]
Format settings : CABAC / 3 Ref Frames
Format settings, CABAC : Yes
Format settings, Reference frames : 3 frames
Codec ID : V_MPEG4/ISO/AVC
Duration : 1 h 36 min
Bit rate mode : Variable
Bit rate : 4 015 kb/s
Nominal bit rate : 4 506 kb/s
Maximum bit rate : 7 305 kb/s
Width : 1 920 pixels
Height : 1 080 pixels
Display aspect ratio : 16:9
Frame rate mode : Constant
Frame rate : 23.976 (24000/1001) FPS
Color space : YUV
Chroma subsampling : 4:2:0
Bit depth : 8 bits
Scan type : Progressive
Bits/(Pixel*Frame) : 0.081
Stream size : 2.70 GiB (66%)
Writing library : x264 core 148 r2727 7d026e8
Encoding settings : cabac=1 / ref=3 / deblock=1:0:0 / analyse=0x1:0x111 / me=umh / subme=10 / psy=1 / psy_rd=1.00:0.00 / mixed_ref=1 / me_range=24 / chroma_me=1 / trellis=2 / 8x8dct=0 / cqm=0 / deadzone=21,11 / fast_pskip=1 / chroma_qp_offset=-2 / threads=8 / lookahead_threads=1 / sliced_threads=0 / nr=0 / decimate=1 / interlaced=0 / bluray_compat=0 / stitchable=1 / constrained_intra=0 / bframes=2 / b_pyramid=0 / b_adapt=2 / b_bias=0 / direct=3 / weightb=1 / open_gop=0 / weightp=2 / keyint=250 / keyint_min=23 / scenecut=0 / intra_refresh=0 / rc_lookahead=48 / rc=2pass / mbtree=1 / bitrate=4506 / ratetol=1.0 / qcomp=0.50 / qpmin=6 / qpmax=51 / qpstep=4 / cplxblur=20.0 / qblur=0.5 / vbv_maxrate=7305 / vbv_bufsize=9740 / nal_hrd=vbr / filler=0 / ip_ratio=1.40 / aq=1:1.00
Default : Yes
Forced : No

Audio #1
ID : 2
Format : E-AC-3
Format/Info : Enhanced AC-3
Commercial name : Dolby Digital Plus
Codec ID : A_EAC3
Duration : 1 h 36 min
Bit rate mode : Constant
Bit rate : 640 kb/s
Channel(s) : 6 channels
Channel layout : L R C LFE Ls Rs
Sampling rate : 48.0 kHz
Frame rate : 31.250 FPS (1536 SPF)
Compression mode : Lossy
Stream size : 441 MiB (11%)
Title : Russian
Language : Russian
Service kind : Complete Main
Default : Yes
Forced : No

Audio #2
ID : 3
Format : E-AC-3
Format/Info : Enhanced AC-3
Commercial name : Dolby Digital Plus
Codec ID : A_EAC3
Duration : 1 h 36 min
Bit rate mode : Constant
Bit rate : 640 kb/s
Channel(s) : 6 channels
Channel layout : L R C LFE Ls Rs
Sampling rate : 48.0 kHz
Frame rate : 31.250 FPS (1536 SPF)
Compression mode : Lossy
Stream size : 441 MiB (11%)
Title : Ukrainian
Language : Ukrainian
Service kind : Complete Main
Default : No
Forced : No

Audio #3
ID : 4
Format : E-AC-3 JOC
Format/Info : Enhanced AC-3 with Joint Object Coding
Commercial name : Dolby Digital Plus with Dolby Atmos
Codec ID : A_EAC3
Duration : 1 h 36 min
Bit rate mode : Constant
Bit rate : 768 kb/s
Channel(s) : 6 channels
Channel layout : L R C LFE Ls Rs
Sampling rate : 48.0 kHz
Frame rate : 31.250 FPS (1536 SPF)
Compression mode : Lossy
Stream size : 529 MiB (13%)
Title : English
Language : English
Service kind : Complete Main
Default : No
Forced : No
Complexity index : 16
Number of dynamic objects : 15
Bed channel count : 1 channel
Bed channel configuration : LFE

Text #1
ID : 5
Format : UTF-8
Codec ID : S_TEXT/UTF8
Codec ID/Info : UTF-8 Plain Text
Duration : 1 h 34 min
Bit rate : 1 b/s
Count of elements : 31
Stream size : 1.14 KiB (0%)
Title : Forced
Language : Russian
Default : Yes
Forced : No

Text #2
ID : 6
Format : UTF-8
Codec ID : S_TEXT/UTF8
Codec ID/Info : UTF-8 Plain Text
Duration : 1 h 34 min
Bit rate : 55 b/s
Count of elements : 897
Stream size : 38.7 KiB (0%)
Title : Russian
Language : Russian
Default : No
Forced : No

Text #3
ID : 7
Format : UTF-8
Codec ID : S_TEXT/UTF8
Codec ID/Info : UTF-8 Plain Text
Duration : 1 h 34 min
Bit rate : 1 b/s
Count of elements : 29
Stream size : 1.12 KiB (0%)
Title : Forced
Language : Ukrainian
Default : No
Forced : No

Text #4
ID : 8
Format : UTF-8
Codec ID : S_TEXT/UTF8
Codec ID/Info : UTF-8 Plain Text
Duration : 1 h 34 min
Bit rate : 56 b/s
Count of elements : 862
Stream size : 38.9 KiB (0%)
Title : Ukrainian
Language : Ukrainian
Default : No
Forced : No

Text #5
ID : 9
Format : UTF-8
Codec ID : S_TEXT/UTF8
Codec ID/Info : UTF-8 Plain Text
Duration : 41 min 15 s
Bit rate : 2 b/s
Count of elements : 27
Stream size : 623 Bytes (0%)
Title : Forced
Language : English
Default : No
Forced : No

Text #6
ID : 10
Format : UTF-8
Codec ID : S_TEXT/UTF8
Codec ID/Info : UTF-8 Plain Text
Duration : 1 h 32 min
Bit rate : 37 b/s
Count of elements : 888
Stream size : 25.3 KiB (0%)
Title : Full
Language : English
Default : No
Forced : No

Text #7
ID : 11
Format : UTF-8
Codec ID : S_TEXT/UTF8
Codec ID/Info : UTF-8 Plain Text
Duration : 1 h 34 min
Bit rate : 57 b/s
Count of elements : 1350
Stream size : 40.0 KiB (0%)
Title : SDH
Language : English
Default : No
Forced : No

Text #8
ID : 12
Format : UTF-8
Codec ID : S_TEXT/UTF8
Codec ID/Info : UTF-8 Plain Text
Duration : 1 h 34 min
Bit rate : 35 b/s
Count of elements : 803
Stream size : 24.3 KiB (0%)
Language : German
Default : No
Forced : No

Text #9
ID : 13
Format : UTF-8
Codec ID : S_TEXT/UTF8
Codec ID/Info : UTF-8 Plain Text
Duration : 1 h 34 min
Bit rate : 33 b/s
Count of elements : 840
Stream size : 23.0 KiB (0%)
Title : European
Language : Spanish
Default : No
Forced : No

Text #10
ID : 14
Format : UTF-8
Codec ID : S_TEXT/UTF8
Codec ID/Info : UTF-8 Plain Text
Duration : 1 h 34 min
Bit rate : 32 b/s
Count of elements : 830
Stream size : 22.6 KiB (0%)
Language : Finnish
Default : No
Forced : No

Text #11
ID : 15
Format : UTF-8
Codec ID : S_TEXT/UTF8
Codec ID/Info : UTF-8 Plain Text
Duration : 1 h 34 min
Bit rate : 32 b/s
Count of elements : 849
Stream size : 22.7 KiB (0%)
Language : French
Default : No
Forced : No

Text #12
ID : 16
Format : UTF-8
Codec ID : S_TEXT/UTF8
Codec ID/Info : UTF-8 Plain Text
Duration : 1 h 34 min
Bit rate : 34 b/s
Count of elements : 805
Stream size : 24.2 KiB (0%)
Language : Italian
Default : No
Forced : No

Text #13
ID : 17
Format : UTF-8
Codec ID : S_TEXT/UTF8
Codec ID/Info : UTF-8 Plain Text
Duration : 1 h 34 min
Bit rate : 41 b/s
Count of elements : 902
Stream size : 29.1 KiB (0%)
Language : Korean
Default : No
Forced : No

Text #14
ID : 18
Format : UTF-8
Codec ID : S_TEXT/UTF8
Codec ID/Info : UTF-8 Plain Text
Duration : 1 h 34 min
Bit rate : 32 b/s
Count of elements : 863
Stream size : 22.8 KiB (0%)
Language : Polish
Default : No
Forced : No

Text #15
ID : 19
Format : UTF-8
Codec ID : S_TEXT/UTF8
Codec ID/Info : UTF-8 Plain Text
Duration : 1 h 34 min
Bit rate : 34 b/s
Count of elements : 881
Stream size : 23.7 KiB (0%)
Title : Brazilian
Language : Portuguese
Default : No
Forced : No

Text #16
ID : 20
Format : UTF-8
Codec ID : S_TEXT/UTF8
Codec ID/Info : UTF-8 Plain Text
Duration : 1 h 34 min
Bit rate : 32 b/s
Count of elements : 743
Stream size : 22.4 KiB (0%)
Language : Swedish
Default : No
Forced : No

Menu
01:33:40.000 : en:Credits

pb.wtf



Скачать Кулаки возмездия через торрент https://i7.imageban.ru/out/2022/02/17/1a88c52c85ff81ae9719754739ac3152.jpg Скачать, смотреть онлайн Кулаки возмездия бесплантно в хорошем качестве Описание: Кай Цзинь отправляется в Бангкок, чтобы в составе команды себе подобных убийц отомстить за смерть одного из своих. Но в процессе ... 9.9 10 12
Торрент: Зарегистрирован [2022-02-17 10:59] · скачан: 442 раз
Статус: √ проверено
Размер: 4.08 GB
Как cкачать? Как скачать Кулаки возмездия через торрент | UTorrent

% Раздел Тема Автор DL S | L
Фильмы 2022 [DVDrip, WEB-DLRip, HDrip] (DUB, MVO) [ 1.46 GB ] Кулаки возмездия / Fistful of Vengeance [2022 WEB-DLRip] - [ / Netflix] Twi7ter Скачать
12 | 0
Фильмы (WEB-DL 720p, 1080p) [ 2.22 GB ] Кулаки возмездия / Fistful of Vengeance [2022 WEB-DL 720p] DUB [VSI Moscow / Netflix] bober100 Скачать
2 | 0
Фильмы 2022 [DVDrip, WEB-DLRip, HDrip] (DUB, MVO) [ 746 MB ] Кулаки возмездия / Fistful of Vengeance [2022 WEB-DLRip] DUB [VSI Moscow / Netflix] bober100 Скачать
1 | 0
Фильмы 2022 [DVDrip, WEB-DLRip, HDrip] (DUB, MVO) [ 2.22 GB ] Кулаки возмездия / Fistful of Vengeance [2022 WEB-DLRip-AVC] DUB [Netflix] от ExKinoRay Lithuania Скачать
3 | 0
Фильмы 2022 [DVDrip, WEB-DLRip, HDrip] (DUB, MVO) [ 1.46 GB ] Кулаки возмездия / Fistful of Vengeance [2022 WEB-DLRip] DUB [VSI Moscow / Netflix] bober100 Скачать
3 | 0

28-11-2019 20:33  

Отключить всю рекламу на сайте

17-02-2022 13:09 Кулаки возмездия Скачать торрент  

ну раз там сама Жужу снимается - надо глянуть)))pb.wtf



    Дорогой пользователь! Огромная просьба, поблагодарите релизера, оцените раздачу и оставьте свои комментарий, если Вы скачали Кулаки возмездия через торрент бесплатно!
    Комментировать посты могут только пользователи прошедшие не сложную регистрацию
    Показать сообщения:    

    Кулаки возмездия через торрент
    Скачать бесплатно Кулаки возмездия
    Кулаки возмездия скачать торрент
    Кулаки возмездия смотреть онлайн
    Cкачать фильм Кулаки возмездия бесплатно
    Кулаки возмездия скачать торрент в хорошем качестве
    Кулаки возмездия смотреть онлайн бесплатно в хорошем качестве


    Вы не можете начинать темы
    Вы не можете отвечать на сообщения
    Вы не можете редактировать свои сообщения
    Вы не можете удалять свои сообщения
    Вы не можете голосовать в опросах
    Вы не можете прикреплять файлы к сообщениям
    Вы можете скачивать файлы