Всегда рабочее зеркало без VPN и Proxy просто перед .vidak.icu напиши любое слово или цифру, Пример http://1rcc.vidak.icu

MVO

Лицензия

1 сезон

1

1 сезон

iTunes

1 сезон

13

1 сезон

Deluxe

pack

Рекомендуем

Repack

30

ВАЖНО

RePack

MK11

RePack

jed

RePack

fifa19

RePack

RDR2

RePack

NEED FOR SPEED™ PAYBACK

Кинопоиск HD

6 сезон

 Острые козырьки 6 сезон

Все сериалы

все сериалы на PB.wtf

RePack

FAR CRY 5
  
Magnet ссылка

Кулаки возмездия / Fistful of Vengeance (Роэль Рейн) [2022, Фэнтези, боевик, драма, криминал, WEB-DL 720p] DUB [VSI Moscow / Netflix] pb.wtf

Кулаки возмездия через торрент pb.wtf

Раздают: 1 [ 0 KB/s ]
Размер: 2.22 GB | Добавлен: 4 мес. 17 д. назад | Торрент скачан:196 раз
Смотреть онлайн Кулаки возмездия | Скачать    Ребята, помогите собрать деньги на оплату серверов!!!

17-02-2022 13:22 Кулаки возмездия Скачать торрент  

Кулаки возмездия
Fistful of Vengeance

Год выпуска: 2022
Страна: США
Студия: Flame Ventures, Living Films, Netflix, Nomadic Pictures
Жанр: Фэнтези, боевик, драма, криминал
Продолжительность: 01:36:20
Перевод: Дублированный | VSI Moscow по заказу Netflix
Субтитры: Русские (forced, full), украинские (forced, full), английские (forced, full, SDH)

Режиссер: Роэль Рейн

rating

В ролях: Ико Уайс, Льюис Тан, Жужу Чан, Яяин Рхатха Пхонгам, Перл Туси, Джейсон Дж. Тобин, Лоуренс Као, Катрина Грэй, Апасири Култанан, Селина Висман и др.

Описание: Кай Цзинь отправляется в Бангкок, чтобы в составе команды себе подобных убийц отомстить за смерть одного из своих. Но в процессе выясняется, что враг куда древнее и опаснее, чем казалось.

Качество: WEB-DL 720p
Формат: MKV

Видео: MPEG-4 AVC, 1272x530 at 23.976 fps, [email protected], ~2654 kbps
Аудио: 48 kHz, AC3, 3/2 (L,C,R,l,r) + LFE ch, ~640 kbps avg
скриншот  скриншот  скриншот  скриншот  скриншот  

x264 [info]: frame I:1353 Avg QP:17.32 size: 61235
x264 [info]: frame P:35976 Avg QP:18.98 size: 25412
x264 [info]: frame B:101266 Avg QP:20.35 size: 9095

General
Unique ID : 4720407858302553147755529282750768510 (0x38D1E137532D4D512D5CBB977CFE57E)
Complete name : L:Fistful.of.Vengeance.2022.NF.DUB.WEB-DLRip.x264.720p.mkv
Format : Matroska
Format version : Version 4
File size : 2.22 GiB
Duration : 1 h 36 min
Overall bit rate : 3 297 kb/s
Encoded date : UTC 2022-02-17 13:13:14
Writing application : mkvmerge v65.0.0 ('Too Much') 64-bit
Writing library : libebml v1.4.2 + libmatroska v1.6.4
Cover : Yes
Attachments : cover.jpg / cover 2.jpg

Video
ID : 1
Format : AVC
Format/Info : Advanced Video Codec
Format profile : [email protected]
Format settings : CABAC / 10 Ref Frames
Format settings, CABAC : Yes
Format settings, Reference : 10 frames
Codec ID : V_MPEG4/ISO/AVC
Duration : 1 h 36 min
Bit rate : 2 654 kb/s
Width : 1 272 pixels
Height : 530 pixels
Display aspect ratio : 2.40:1
Frame rate mode : Constant
Frame rate : 23.976 (24000/1001) FPS
Color space : YUV
Chroma subsampling : 4:2:0
Bit depth : 8 bits
Scan type : Progressive
Bits/(Pixel*Frame) : 0.164
Stream size : 1.79 GiB (81%)
Title : -=DoMiNo=-
Writing library : x264 core 164 r3086 5585eaf
Encoding settings : cabac=1 / ref=10 / deblock=1:-3:-2 / analyse=0x3:0x133 / me=umh / subme=9 / psy=1 / psy_rd=1.00:0.00 / mixed_ref=1 / me_range=32 / chroma_me=1 / trellis=2 / 8x8dct=1 / cqm=0 / deadzone=21,11 / fast_pskip=0 / chroma_qp_offset=-2 / threads=17 / lookahead_threads=4 / sliced_threads=0 / nr=0 / decimate=1 / interlaced=0 / bluray_compat=0 / constrained_intra=0 / bframes=10 / b_pyramid=2 / b_adapt=2 / b_bias=0 / direct=1 / weightb=1 / open_gop=0 / weightp=2 / keyint=250 / keyint_min=23 / scenecut=40 / intra_refresh=0 / rc_lookahead=60 / rc=crf / mbtree=0 / crf=20.5 / qcomp=0.70 / qpmin=0 / qpmax=69 / qpstep=4 / vbv_maxrate=50000 / vbv_bufsize=62500 / crf_max=0.0 / nal_hrd=none / filler=0 / ip_ratio=1.30 / pb_ratio=1.20 / aq=1:1.00
Language : English
Default : Yes
Forced : No

Audio
ID : 2
Format : AC-3
Format/Info : Audio Coding 3
Commercial name : Dolby Digital
Codec ID : A_AC3
Duration : 1 h 36 min
Bit rate mode : Constant
Bit rate : 640 kb/s
Channel(s) : 6 channels
Channel layout : L R C LFE Ls Rs
Sampling rate : 48.0 kHz
Frame rate : 31.250 FPS (1536 SPF)
Compression mode : Lossy
Stream size : 441 MiB (19%)
Title : DUB
Language : Russian
Service kind : Complete Main
Default : Yes
Forced : No

Text #1
ID : 3
Format : UTF-8
Codec ID : S_TEXT/UTF8
Codec ID/Info : UTF-8 Plain Text
Duration : 1 h 34 min
Bit rate : 1 b/s
Count of elements : 31
Stream size : 1.14 KiB (0%)
Title : Forced
Language : Russian
Default : Yes
Forced : No

Text #2
ID : 4
Format : UTF-8
Codec ID : S_TEXT/UTF8
Codec ID/Info : UTF-8 Plain Text
Duration : 1 h 34 min
Bit rate : 55 b/s
Count of elements : 897
Stream size : 38.7 KiB (0%)
Title : Russian
Language : Russian
Default : No
Forced : No

Text #3
ID : 5
Format : UTF-8
Codec ID : S_TEXT/UTF8
Codec ID/Info : UTF-8 Plain Text
Duration : 1 h 34 min
Bit rate : 1 b/s
Count of elements : 29
Stream size : 1.12 KiB (0%)
Title : Forced
Language : Ukrainian
Default : No
Forced : No

Text #4
ID : 6
Format : UTF-8
Codec ID : S_TEXT/UTF8
Codec ID/Info : UTF-8 Plain Text
Duration : 1 h 34 min
Bit rate : 56 b/s
Count of elements : 862
Stream size : 38.9 KiB (0%)
Title : Ukrainian
Language : Ukrainian
Default : No
Forced : No

Text #5
ID : 7
Format : UTF-8
Codec ID : S_TEXT/UTF8
Codec ID/Info : UTF-8 Plain Text
Duration : 41 min 15 s
Bit rate : 2 b/s
Count of elements : 27
Stream size : 623 Bytes (0%)
Title : Forced
Language : English
Default : No
Forced : No

Text #6
ID : 8
Format : UTF-8
Codec ID : S_TEXT/UTF8
Codec ID/Info : UTF-8 Plain Text
Duration : 1 h 32 min
Bit rate : 37 b/s
Count of elements : 888
Stream size : 25.3 KiB (0%)
Title : Full
Language : English
Default : No
Forced : No

Text #7
ID : 9
Format : UTF-8
Codec ID : S_TEXT/UTF8
Codec ID/Info : UTF-8 Plain Text
Duration : 1 h 34 min
Bit rate : 57 b/s
Count of elements : 1350
Stream size : 40.0 KiB (0%)
Title : SDH
Language : English
Default : No
Forced : No

Menu
01:33:40.000 : en:Credits

pb.wtf



Скачать Кулаки возмездия через торрент https://i7.imageban.ru/out/2022/02/17/1a88c52c85ff81ae9719754739ac3152.jpg Скачать, смотреть онлайн Кулаки возмездия бесплантно в хорошем качестве Описание: Кай Цзинь отправляется в Бангкок, чтобы в составе команды себе подобных убийц отомстить за смерть одного из своих. Но в процессе ... 10 10 9
Торрент: Зарегистрирован [2022-02-17 13:22] · скачан: 196 раз
Статус: √ проверено
Размер: 2.22 GB
Как cкачать? Как скачать Кулаки возмездия через торрент | UTorrent

% Раздел Тема Автор DL S | L
Фильмы 2022 [DVDrip, WEB-DLRip, HDrip] (DUB, MVO) [ 1.46 GB ] Кулаки возмездия / Fistful of Vengeance [2022 WEB-DLRip] - [ / Netflix] Twi7ter Скачать
13 | 0
Фильмы 2022 [DVDrip, WEB-DLRip, HDrip] (DUB, MVO) [ 746 MB ] Кулаки возмездия / Fistful of Vengeance [2022 WEB-DLRip] DUB [VSI Moscow / Netflix] bober100 Скачать
1 | 0
Фильмы 2022 [DVDrip, WEB-DLRip, HDrip] (DUB, MVO) [ 2.22 GB ] Кулаки возмездия / Fistful of Vengeance [2022 WEB-DLRip-AVC] DUB [Netflix] от ExKinoRay Lithuania Скачать
3 | 0
Фильмы 2022 [DVDrip, WEB-DLRip, HDrip] (DUB, MVO) [ 1.46 GB ] Кулаки возмездия / Fistful of Vengeance [2022 WEB-DLRip] DUB [VSI Moscow / Netflix] bober100 Скачать
2 | 0
Фильмы (WEB-DL 720p, 1080p) [ 4.08 GB ] Кулаки возмездия / Fistful of Vengeance [2022 WEB-DL 1080p] DUB [VSI Moscow / Netflix] bober100 Скачать
2 | 0

28-11-2019 20:33  

Отключить всю рекламу на сайте

20-02-2022 19:36 Кулаки возмездия Скачать торрент  

кино не очемpb.wtf



    Дорогой пользователь! Огромная просьба, поблагодарите релизера, оцените раздачу и оставьте свои комментарий, если Вы скачали Кулаки возмездия через торрент бесплатно!
    Комментировать посты могут только пользователи прошедшие не сложную регистрацию
    Показать сообщения:    

    Кулаки возмездия через торрент
    Скачать бесплатно Кулаки возмездия
    Кулаки возмездия скачать торрент
    Кулаки возмездия смотреть онлайн
    Cкачать фильм Кулаки возмездия бесплатно
    Кулаки возмездия скачать торрент в хорошем качестве
    Кулаки возмездия смотреть онлайн бесплатно в хорошем качестве


    Вы не можете начинать темы
    Вы не можете отвечать на сообщения
    Вы не можете редактировать свои сообщения
    Вы не можете удалять свои сообщения
    Вы не можете голосовать в опросах
    Вы не можете прикреплять файлы к сообщениям
    Вы можете скачивать файлы