Достать ножи: Стеклянная луковица

MVO

Добыча

Дубляж

Уэнсдэй

1 сезон

Тор

Дубляж

13 клиническая

1 сезон

Жестокая ночь

MVO

Одни из нас

1 сезон

Deluxe

pack

Рекомендуем

30

Пиратка

ВАЖНО

ВАЖНО

Ghostwire

Пиратка

jed

RePack

nioh2

RePack

RDR2

RePack

NEED FOR SPEED™ PAYBACK

RePack

скачать торрент

Кинопоиск HD

Острые козырьки 6 сезон

6 сезон

FAR CRY 6

RePack

скачать торрент

Лицензия

скачать торрент

MVO

1

1 сезон

скачать торрент

1 сезон

скачать торрент

Лицензия

  

Шоу Чашека! / The Cuphead Show! / Сезон: 1 / Серии: 1-12 из 12 (Клэй Морроу, Адам Палоян) [2022, Мультфильм, фэнтези, боевик, комедия, приключения, семейный, WEB-DL 1080p] Дубляж (rus, ukr) [Пифагор / Netflix]

Шоу Чашека! через торрент pb.wtf

Размер: 9.69 GB | Добавлен: 11 мес. назад | Торрент скачан:136 раз
Смотреть онлайн | Скачать | Поддержите нас   

18-02-2022 09:14 Шоу Чашека! Скачать торрент  

Шоу Чашека!
The Cuphead Show!

Год выпуска: 2022
Страна: США, Канада
Выпущено: King Features Syndicate, Netflix Animation, Studio MDHR
Жанр: Мультфильм, фэнтези, боевик, комедия, приключения, семейный
Продолжительность: ~ 00:12:00
Перевод: Дублированный | Пифагор по заказу Netflix
Субтитры: Русские (Forced, Full), английские (SDH), иврит, румынские, украинские

Режиссер: Клэй Морроу, Адам Палоян

rating

В ролях: Тру Валентино, Фрэнк Тодаро, Люк Миллингтон-Дрэйк, Джо Ханна, Уэйн Брэди, Джим Конрой, Грэй Гриффин

Описание: Основанный на популярной видеоигре мультсериал о злоключениях импульсивного Чашека и его послушного брата Кружека. В мультсериале нас ждёт история приключений двух братьев, Чашека и Кружека, а также встречи со многими персонажами Cuphead, в том числе самыми сложными боссами, среди которых сам Дьявол и его помощник Кинг Дайс.

Качество: WEB-DL 1080p
Формат: MKV

Видео: AVC, 1920x1080 (16:9), 23.976 fps, ~6000 kbps
Аудио №1: E-AC3, 6 ch, 48 kHz, 640 kbps
Аудио №2: E-AC3, 48 kHz, 6 ch, 640 kbps
Аудио №2: E-AC3, 48 kHz, 6 ch, 640 kbps
скриншот  скриншот  скриншот  скриншот  скриншот  скриншот  

General
Unique ID : 153588045203391653217388297988794026339 (0x738BFB45ECA39C99165C4FEA89F50963)
Complete name : The.Cuphead.Show.S01E01.Carn-Evil.1080p.NF.WEB-DL.DDP5.1.H.264-EniaHD.mkv
Format : Matroska
Format version : Version 4
File size : 858 MiB
Duration : 15 min 15 s
Overall bit rate mode : Variable
Overall bit rate : 7 860 kb/s
Movie name : The Cuphead Show! S01E01 [Carn-Evil] - EniaHD
Writing application : mkvmerge v57.0.0 ('Till The End') 64-bit
Writing library : libebml v1.4.2 + libmatroska v1.6.4

Video
ID : 1
Format : AVC
Format/Info : Advanced Video Codec
Format profile : [email protected]
Format settings : CABAC / 3 Ref Frames
Format settings, CABAC : Yes
Format settings, Reference fra : 3 frames
Codec ID : V_MPEG4/ISO/AVC
Duration : 15 min 15 s
Bit rate mode : Variable
Bit rate : 5 938 kb/s
Nominal bit rate : 7 500 kb/s
Maximum bit rate : 11.2 Mb/s
Width : 1 920 pixels
Height : 1 080 pixels
Display aspect ratio : 16:9
Frame rate mode : Constant
Frame rate : 24.000 FPS
Color space : YUV
Chroma subsampling : 4:2:0
Bit depth : 8 bits
Scan type : Progressive
Bits/(Pixel*Frame) : 0.119
Stream size : 648 MiB (76%)
Writing library : x264 core 148 r2727 7d026e8
Encoding settings : cabac=1 / ref=3 / deblock=1:0:0 / analyse=0x1:0x111 / me=umh / subme=10 / psy=1 / psy_rd=1.00:0.00 / mixed_ref=1 / me_range=24 / chroma_me=1 / trellis=2 / 8x8dct=0 / cqm=0 / deadzone=21,11 / fast_pskip=1 / chroma_qp_offset=-2 / threads=8 / lookahead_threads=1 / sliced_threads=0 / nr=0 / decimate=1 / interlaced=0 / bluray_compat=0 / stitchable=1 / constrained_intra=0 / bframes=2 / b_pyramid=0 / b_adapt=2 / b_bias=0 / direct=3 / weightb=1 / open_gop=0 / weightp=2 / keyint=250 / keyint_min=24 / scenecut=0 / intra_refresh=0 / rc_lookahead=48 / rc=2pass / mbtree=1 / bitrate=7500 / ratetol=1.0 / qcomp=0.50 / qpmin=6 / qpmax=51 / qpstep=4 / cplxblur=20.0 / qblur=0.5 / vbv_maxrate=11250 / vbv_bufsize=15000 / nal_hrd=vbr / filler=0 / ip_ratio=1.40 / aq=1:1.00
Default : Yes
Forced : No

Audio #1
ID : 2
Format : E-AC-3
Format/Info : Enhanced AC-3
Commercial name : Dolby Digital Plus
Codec ID : A_EAC3
Duration : 15 min 15 s
Bit rate mode : Constant
Bit rate : 640 kb/s
Channel(s) : 6 channels
Channel layout : L R C LFE Ls Rs
Sampling rate : 48.0 kHz
Frame rate : 31.250 FPS (1536 SPF)
Compression mode : Lossy
Stream size : 69.8 MiB (8%)
Language : Russian
Service kind : Complete Main
Default : Yes
Forced : No

Audio #2
ID : 3
Format : E-AC-3
Format/Info : Enhanced AC-3
Commercial name : Dolby Digital Plus
Codec ID : A_EAC3
Duration : 15 min 15 s
Bit rate mode : Constant
Bit rate : 640 kb/s
Channel(s) : 6 channels
Channel layout : L R C LFE Ls Rs
Sampling rate : 48.0 kHz
Frame rate : 31.250 FPS (1536 SPF)
Compression mode : Lossy
Stream size : 69.8 MiB (8%)
Language : Ukrainian
Service kind : Complete Main
Default : No
Forced : No

Audio #3
ID : 4
Format : E-AC-3
Format/Info : Enhanced AC-3
Commercial name : Dolby Digital Plus
Codec ID : A_EAC3
Duration : 15 min 15 s
Bit rate mode : Constant
Bit rate : 640 kb/s
Channel(s) : 6 channels
Channel layout : L R C LFE Ls Rs
Sampling rate : 48.0 kHz
Frame rate : 31.250 FPS (1536 SPF)
Compression mode : Lossy
Stream size : 69.8 MiB (8%)
Language : English
Service kind : Complete Main
Default : No
Forced : No

Text #1
ID : 5
Format : UTF-8
Codec ID : S_TEXT/UTF8
Codec ID/Info : UTF-8 Plain Text
Duration : 11 min 42 s
Bit rate : 6 b/s
Count of elements : 16
Stream size : 534 Bytes (0%)
Title : Forced
Language : Russian
Default : Yes
Forced : No

Text #2
ID : 6
Format : UTF-8
Codec ID : S_TEXT/UTF8
Codec ID/Info : UTF-8 Plain Text
Duration : 11 min 42 s
Bit rate : 65 b/s
Count of elements : 131
Stream size : 5.62 KiB (0%)
Language : Russian
Default : No
Forced : No

Text #3
ID : 7
Format : UTF-8
Codec ID : S_TEXT/UTF8
Codec ID/Info : UTF-8 Plain Text
Duration : 11 min 16 s
Bit rate : 63 b/s
Count of elements : 212
Stream size : 5.27 KiB (0%)
Title : SDH
Language : English
Default : No
Forced : No

Text #4
ID : 8
Format : UTF-8
Codec ID : S_TEXT/UTF8
Codec ID/Info : UTF-8 Plain Text
Duration : 11 min 56 s
Bit rate : 67 b/s
Count of elements : 126
Stream size : 5.87 KiB (0%)
Language : Hebrew
Default : No
Forced : No

Text #5
ID : 9
Format : UTF-8
Codec ID : S_TEXT/UTF8
Codec ID/Info : UTF-8 Plain Text
Duration : 11 min 56 s
Bit rate : 45 b/s
Count of elements : 128
Stream size : 3.98 KiB (0%)
Language : Romanian
Default : No
Forced : No

Text #6
ID : 10
Format : UTF-8
Codec ID : S_TEXT/UTF8
Codec ID/Info : UTF-8 Plain Text
Duration : 11 min 56 s
Bit rate : 62 b/s
Count of elements : 132
Stream size : 5.50 KiB (0%)
Language : Ukrainian
Default : No
Forced : No

Text #7
ID : 11
Format : UTF-8
Codec ID : S_TEXT/UTF8
Codec ID/Info : UTF-8 Plain Text
Duration : 11 min 56 s
Bit rate : 5 b/s
Count of elements : 15
Stream size : 449 Bytes (0%)
Title : Forced
Language : Ukrainian
Default : No
Forced : No

Внимание! Раздача ведётся путём добавления новых серий; при каждом добавлении создаётся новый торрент.
Чтобы начать докачку новой серии, пользователям необходимо сделать следующее:
1. Остановить скачивание;
2. Удалить старый торрент у себя из клиента (старые серии удалять не надо);
3. Скачать новый торрент и запустить его у себя в клиенте вместо старого, при этом указать клиенту путь в старую папку куда и должно происходить скачивание новых серий. Ваш клиент при этом должен произвести хеширование (проверку) старой папки и будет докачивать только те серии, которых у вас ещё нет. Старые серии при этом не удаляются, а продолжают раздаваться! Eсли вы уже удалили старые серии, то предотвратить повторную закачку старых серий можно, отжав галочку в соответствующих местах при запуске нового торрента.




Скачать Шоу Чашека! через торрент https://i116.fastpic.org/big/2022/0218/b7/76403daa124add305dc3341bdfd9feb7.jpg Скачать, смотреть онлайн Шоу Чашека! бесплантно в хорошем качестве Описание: Основанный на популярной видеоигре мультсериал о злоключениях импульсивного Чашека и его послушного брата Кружека. В мультсериале ... 10 10 6
Торрент: Зарегистрирован [2022-02-18 09:14] · скачан: 136 раз
Статус: √ проверено
Размер: 9.69 GB
Как cкачать? Как скачать Шоу Чашека! через торрент | UTorrent

% Раздел Тема Автор DL S | L
Мультсериалы [ 2.17 GB ] Шоу Чашека! / The Cuphead Show! / Сезон: 1 / Серии: 1-12 из 12 | Пифагор | DLRip bober100 Скачать
2 | 0

28-11-2019 20:33  


Отключить вcю реклaмy на сайте, в т.ч. и в плеере онлайн просмотра!

24-02-2022 05:53 Шоу Чашека! Скачать торрент  

Классный мульт!!! Подскажите как называется трек в конце мультика? Не могу найти в интернете. Только с игры есть.



    Дорогой пользователь! Огромная просьба, поблагодарите релизера, оцените раздачу и оставьте свои комментарий, если Вы скачали Шоу Чашека! через торрент бесплатно!!
    Комментировать посты могут только пользователи прошедшие не сложную регистрацию
    Показать сообщения:    


    Шоу Чашека! через торрент
    Скачать бесплатно Шоу Чашека!
    Шоу Чашека! скачать торрент
    Шоу Чашека! смотреть онлайн
    Cкачать фильм Шоу Чашека! бесплатно
    Шоу Чашека! скачать торрент в хорошем качестве
    Шоу Чашека! смотреть онлайн бесплатно в хорошем качестве
    Вы не можете начинать темы
    Вы не можете отвечать на сообщения
    Вы не можете редактировать свои сообщения
    Вы не можете удалять свои сообщения
    Вы не можете голосовать в опросах
    Вы не можете прикреплять файлы к сообщениям
    Вы можете скачивать файлы
    Шоу Чашека! / The Cuphead Show! / Сезон: 1 / Серии: 1-12 из 12 [2022, Мультфильм, фэнтези, боевик, комедия, приключения, семейный, WEB-DL 1080p] Дубляж [Пифагор / Netflix] смотреть онлайн, скачать торрент picoco.icu