Достать ножи: Стеклянная луковица

MVO

Добыча

Дубляж

Уэнсдэй

1 сезон

Тор

Дубляж

13 клиническая

1 сезон

Жестокая ночь

MVO

Одни из нас

1 сезон

Deluxe

pack

Рекомендуем

30

Пиратка

ВАЖНО

ВАЖНО

Ghostwire

Пиратка

jed

RePack

nioh2

RePack

RDR2

RePack

NEED FOR SPEED™ PAYBACK

RePack

скачать торрент

Кинопоиск HD

Острые козырьки 6 сезон

6 сезон

FAR CRY 6

RePack

скачать торрент

Лицензия

скачать торрент

MVO

1

1 сезон

скачать торрент

1 сезон

скачать торрент

Лицензия

  

Шоу Чашека! / The Cuphead Show! / Сезон: 1 / Серии: 1-12 из 12 (Клэй Морроу, Адам Палоян) [2022, Мультфильм, фэнтези, боевик, комедия, приключения, семейный, WEB-DLRip] Дубляж [Пифагор / Netflix]

Шоу Чашека! через торрент pb.wtf

Размер: 2.17 GB | Добавлен: 11 мес. назад | Торрент скачан:85 раз
Смотреть онлайн | Скачать | Поддержите нас   

20-02-2022 10:39 Шоу Чашека! Скачать торрент  

Шоу Чашека!
The Cuphead Show!

Год выпуска: 2022
Страна: США, Канада
Выпущено: King Features Syndicate, Netflix Animation, Studio MDHR
Жанр: Мультфильм, фэнтези, боевик, комедия, приключения, семейный
Продолжительность: ~ 00:12:00
Перевод: Дублированный | Пифагор по заказу Netflix
Субтитры: Русские (форсированные, полные), английские

Режиссер: Клэй Морроу, Адам Палоян

rating

В ролях: Тру Валентино, Фрэнк Тодаро, Люк Миллингтон-Дрэйк, Джо Ханна, Уэйн Брэди, Джим Конрой, Грэй Гриффин

Описание: Основанный на популярной видеоигре мультсериал о злоключениях импульсивного Чашека и его послушного брата Кружека. В мультсериале нас ждёт история приключений двух братьев, Чашека и Кружека, а также встречи со многими персонажами Cuphead, в том числе самыми сложными боссами, среди которых сам Дьявол и его помощник Кинг Дайс.

Качество: WEB-DLRip
Формат: AVI

Видео: 720x400 XviD ~1500 kbps avg, 0.22 bit/pixel
Аудио №1: 48 kHz, MPEG Layer 3, 2 ch, ~128.00 kbps
Аудио №2: 48 kHz, MPEG Layer 3, 2 ch, ~128.00 kbps
скриншот  скриншот  скриншот  скриншот  скриншот  скриншот  

Общее
Полное имя : D:\The Cuphead Show\The.Cuphead.Show.s01e01.avi
Формат : AVI
Формат/Информация : Audio Video Interleave
Размер файла : 189 Мбайт
Продолжительность : 15 м. 15 с.
Общий поток : 1 731 Кбит/сек
Название фильма : The.Cuphead.Show.s01e01.Skreech
Программа кодирования : VirtualDubMod 1.5.10.2 (build 2540/release)
Библиотека кодирования : VirtualDubMod build 2540/release

Видео
Идентификатор : 0
Формат : MPEG-4 Visual
Профиль формата : Advanced [email protected]
Настройки формата : BVOP1 / Custom Matrix
Параметр BVOP формата : 1
Параметр QPel формата : Нет
Параметр GMC формата : Без точки перехода
Параметр матрицы формата : Выборочная
Идентификатор кодека : XVID
Идентификатор кодека/Подсказка : XviD
Продолжительность : 15 м. 15 с.
Битрейт : 1 461 Кбит/сек
Ширина : 720 пикселей
Высота : 400 пикселей
Соотношение сторон : 16:9
Частота кадров : 24,000 кадра/сек
Цветовое пространство : YUV
Субдискретизация насыщенности : 4:2:0
Битовая глубина : 8 бит
Тип развёртки : Прогрессивная
Метод сжатия : С потерями
Бит/(Пиксели*Кадры) : 0.211
Размер потока : 159 Мбайт (84%)
Библиотека кодирования : XviD 73

Аудио #1
Идентификатор : 1
Формат : MPEG Audio
Версия формата : Version 1
Профиль формата : Layer 3
Настройки формата : Joint stereo / MS Stereo
Идентификатор кодека : 55
Идентификатор кодека/Подсказка : MP3
Продолжительность : 15 м. 15 с.
Вид битрейта : Постоянный
Битрейт : 128 Кбит/сек
Каналы : 2 канала
Частота : 48,0 КГц
Метод сжатия : С потерями
Размер потока : 14,0 Мбайт (7%)
Выравнивание : Разделение по промежуткам
Продолжительность промежутка : 42 мс. (1,00 видеокадр)
Время предзагрузки промежутка : 500 мс.

Аудио #2
Идентификатор : 2
Формат : MPEG Audio
Версия формата : Version 1
Профиль формата : Layer 3
Настройки формата : Joint stereo / MS Stereo
Идентификатор кодека : 55
Идентификатор кодека/Подсказка : MP3
Продолжительность : 15 м. 15 с.
Вид битрейта : Постоянный
Битрейт : 128 Кбит/сек
Каналы : 2 канала
Частота : 48,0 КГц
Метод сжатия : С потерями
Размер потока : 14,0 Мбайт (7%)
Выравнивание : Разделение по промежуткам
Продолжительность промежутка : 42 мс. (1,00 видеокадр)
Время предзагрузки промежутка : 500 мс.

Внимание! Раздача ведётся путём добавления новых серий; при каждом добавлении создаётся новый торрент.
Чтобы начать докачку новой серии, пользователям необходимо сделать следующее:
1. Остановить скачивание;
2. Удалить старый торрент у себя из клиента (старые серии удалять не надо);
3. Скачать новый торрент и запустить его у себя в клиенте вместо старого, при этом указать клиенту путь в старую папку куда и должно происходить скачивание новых серий. Ваш клиент при этом должен произвести хеширование (проверку) старой папки и будет докачивать только те серии, которых у вас ещё нет. Старые серии при этом не удаляются, а продолжают раздаваться! Eсли вы уже удалили старые серии, то предотвратить повторную закачку старых серий можно, отжав галочку в соответствующих местах при запуске нового торрента.




Скачать Шоу Чашека! через торрент https://i116.fastpic.org/big/2022/0218/b7/76403daa124add305dc3341bdfd9feb7.jpg Скачать, смотреть онлайн Шоу Чашека! бесплантно в хорошем качестве Описание: Основанный на популярной видеоигре мультсериал о злоключениях импульсивного Чашека и его послушного брата Кружека. В мультсериале ... 10 10 5
Info! Золотая раздача, скачанное не засчитывается.
Торрент: Зарегистрирован [2022-02-20 10:39] · скачан: 85 раз
Статус: √ проверено
Размер: 2.17 GB
Как cкачать? Как скачать Шоу Чашека! через торрент | UTorrent

% Раздел Тема Автор DL S | L
Мультсериалы [ 9.69 GB ] Шоу Чашека! / The Cuphead Show! / Сезон: 1 / Серии: 1-12 из 12 | Пифагор | 1080p bober100 Скачать
1 | 0



Последний раз редактировалось: bober100 (2022-02-27 16:47), всего редактировалось 1 раз

28-11-2019 20:33  


Отключить вcю реклaмy на сайте, в т.ч. и в плеере онлайн просмотра!

24-02-2022 05:50 Шоу Чашека! Скачать торрент  

Классный мульт!!! Подскажите как называется трек в конце мультика? Не могу найти в интернете.



    Дорогой пользователь! Огромная просьба, поблагодарите релизера, оцените раздачу и оставьте свои комментарий, если Вы скачали Шоу Чашека! через торрент бесплатно!!
    Комментировать посты могут только пользователи прошедшие не сложную регистрацию
    Показать сообщения:    


    Шоу Чашека! через торрент
    Скачать бесплатно Шоу Чашека!
    Шоу Чашека! скачать торрент
    Шоу Чашека! смотреть онлайн
    Cкачать фильм Шоу Чашека! бесплатно
    Шоу Чашека! скачать торрент в хорошем качестве
    Шоу Чашека! смотреть онлайн бесплатно в хорошем качестве
    Вы не можете начинать темы
    Вы не можете отвечать на сообщения
    Вы не можете редактировать свои сообщения
    Вы не можете удалять свои сообщения
    Вы не можете голосовать в опросах
    Вы не можете прикреплять файлы к сообщениям
    Вы можете скачивать файлы
    Шоу Чашека! / The Cuphead Show! / Сезон: 1 / Серии: 1-12 из 12 [2022, Мультфильм, фэнтези, боевик, комедия, приключения, семейный, WEB-DLRip] Дубляж [Пифагор / Netflix] смотреть онлайн, скачать торрент picoco.icu